Tous les Films en BluRay | chez keith et anita | Dark Resonance (2016) Movie Watch Online

The.Resurrection.of.Gavin.Stone.2017.BRRip.XviD.AC3-EVO[PRiME]

DOWNLOAD TORRENT

Posted on April 20, 2017 in Movies » Misc , verified torrent

Size: 1.41 GB , Seeds: 16 , Peers: 12 ( Updated April 21, 2017 - Refresh )

* Download via Magnet Link * To download files you need a Bittorrent Client ,

Scrape History ( seeds + peers )

Internal Files

The.Resurrection.of.Gavin.Stone.2017.BRRip.XviD.AC3-EVO[PRiME]
Please Support!! Read More!!!.txt   334 Byte
sample[PRiME].avi   16.02 MB
The.Resurrection.of.Gavin.Stone.2017.BRRip.XviD.AC3-EVO[PRiME].avi   1.39 GB
Torrent Downloaded From 1337x.to.txt   69 Byte
Torrent Downloaded From peertorrent.com.txt   446 Byte

Hash Code

d74c3b1db9786e88ef3c95dfb2abe8861a0a1107

Description


The.Resurrection.of.Gavin.Stone.2017.BRRip.XviD.AC3-EVO[PRiME]

ImDb: http://www.imdb.com/title/tt4902904

SCREENSHOT

Complete name : The.Resurrection.of.Gavin.Stone.2017.BRRip.XviD.AC3-EVO[PRiME].avi
Format : AVI
Format/Info : Audio Video Interleave
File size : 1.39 GiB
Duration : 1 h 31 min
Overall bit rate : 2 174 kb/s
Writing library : VirtualDub build 32593/release

Video
ID : 0
Format : MPEG-4 Visual
Format profile : Advanced [email protected]/* */
Format settings, BVOP : 2
Format settings, QPel : No
Format settings, GMC : No warppoints
Format settings, Matrix : Default (H.263)
Muxing mode : Packed bitstream
Codec ID : XVID
Codec ID/Hint : XviD
Duration : 1 h 31 min
Bit rate : 1 717 kb/s
Width : 720 pixels
Height : 384 pixels
Display aspect ratio : 1.85:1
Frame rate : 23.976 (23976/1000) FPS
Color space : YUV
Chroma subsampling : 4:2:0
Bit depth : 8 bits
Scan type : Progressive
Compression mode : Lossy
Bits/(Pixel*Frame) : 0.259
Stream size : 1.10 GiB (79%)
Writing library : XviD 66

Audio
ID : 1
Format : AC-3
Format/Info : Audio Coding 3
Mode extension : CM (complete main)
Format settings, Endianness : Big
Codec ID : 2000
Duration : 1 h 31 min
Bit rate mode : Constant
Bit rate : 448 kb/s
Channel(s) : 6 channels
Channel positions : Front: L C R, Side: L R, LFE
Sampling rate : 48.0 kHz
Frame rate : 31.250 FPS (1536 spf)
Compression mode : Lossy
Stream size : 293 MiB (21%)
Alignment : Aligned on interleaves
Interleave, duration : 42 ms (1.00 video frame)
Interleave, preload duration : 512 ms

SCREENSHOT

Click Image To View Full Size

SCREENSHOT
Click To View Screenshot
Click To View Screenshot
Click To View Screenshot

Torrent location

http://www.1337x.to/torrent/2171439/The-Resurrection-of-Gavin-Stone-2017-BRRip-XviD-AC3-EVO-PRiME/

Trackers

Refresh Leechers : Updated April 21, 2017

1. http://explodie.org:6969/announce

2. http://tracker.tfile.me/announce

3. http://bigfoot1942.sektori.org:6969/announce

4. udp://eddie4.nl:6969/announce

5. udp://tracker4.piratux.com:6969/announce

6. udp://tracker.trackerfix.com:80/announce

7. udp://tracker.pomf.se:80/announce

8. udp://torrent.gresille.org:80/announce

9. udp://9.rarbg.me:2710/announce

10. udp://tracker.leechers-paradise.org:6969/announce

11. udp://glotorrents.pw:6969/announce

12. udp://tracker.opentrackr.org:1337/announce

13. udp://tracker.blackunicorn.xyz:6969/announce

14. udp://tracker.internetwarriors.net:1337/announce

15. udp://p4p.arenabg.ch:1337/announce

16. udp://tracker.coppersurfer.tk:6969/announce

17. udp://9.rarbg.to:2710/announce

18. udp://tracker.openbittorrent.com:80/announce

19. udp://glotorrents.pw:6969/announce

20. udp://eddie4.nl:6969/announce

21. udp://explodie.org:6969/announce

22. udp://9.rarbg.me:2710/announce

23. udp://9.rarbg.to:2710/announce

24. udp://9.rarbg.com:2710/announce

25. udp://p4p.arenabg.com:1337/announce

26. udp://p4p.arenabg.ch:1337/announce

27. udp://ipv4.tracker.harry.lu:80/announce

28. udp://tracker.zer0day.to:1337/announce

29. udp://tracker.opentrackr.org:1337/announce

30. udp://tracker.leechers-paradise.org:6969/announce

31. udp://tracker.coppersurfer.tk:6969/announce

32. udp://tracker.ilibr.org:80/announce

33. udp://tracker.ilibr.org:6969/announce

Comments

You must log in to add a comment.

Embed Code

Sharing Widget

Related torrents

FILENAME SIZE SEEDS PEERS ADDED UPD
[i] The.Resurrection.of.Gavin.Stone.2017.720p.BRRip.x264.AAC-ETRG 718.3 MB 245 156 2 days 1 day
[i] The Resurrection of Gavin Stone (2016) 720p BRRip 800MB - MkvCage 801.3 MB 40 32 2 days 1 day
[i] The.Resurrection.of.Gavin.Stone.2017.1080p.BluRay.x264.DTS-HDChina[EtHD] 8.33 GB 27 24 2 days 1 day
[i] The.Resurrection.Of.Gavin.Stone.2016.720p.BluRay.x264-Replica[EtHD] 4.37 GB 25 9 2 days 1 day
[i] The Resurrection of Gavin Stone 2016 480p BluRay x264-RMTeam 340.57 MB 20 7 2 days 1 day
[i] The.Resurrection.of.Gavin.Stone.2017.BRRip.XviD.AC3-iFT[PRiME] 1.55 GB 20 18 2 days 2 days
[i] The.Resurrection.Of.Gavin.Stone.2016.1080p.BluRay.x264-Replica[EtHD] 7.65 GB 19 17 2 days 1 day
[i] The.Resurrection.of.Gavin.Stone.2017.720p.BluRay.x264.DTS-HDChina[EtHD] 4.17 GB 16 14 2 days 1 day
[i] The.Resurrection.of.Gavin.Stone.2017.720p.BRRip.x264.AC3-Manning 2.44 GB 8 7 2 days 1 day
[i] The.Resurrection.Of.Gavin.Stone.2016.BDRip.x264-DiAMOND 542.83 MB 7 6 2 days 1 day

Top Movies ( auto generated report )

FILENAME SIZE SEEDS PEERS ADDED UPD
[i] Rings.2017.BRRip.XViD-ETRG 712.3 MB 5304 3488 3 days 2 days
[i] A Dog's Purpose (2017) [720p] [YTS AG] 734.31 MB 4012 2214 2 days 12 hours
[i] Get.Out.2017.720p.HC.HDRip.XviD.AC3-EVO[EtHD] 2.5 GB 3446 1856 2 days 1 day
[i] Gold (2016) [720p] [YTS AG] 881.47 MB 3391 1995 2 days 1 day
[i] Rings (2017) [720p] [YTS AG] 758.1 MB 3371 2294 2 days 1 day
[i] Gold (2016) [1080p] [YTS AG] 1.83 GB 3342 1727 2 days 1 day
[i] A Dog's Purpose (2017) [1080p] [YTS AG] 1.52 GB 3317 1615 2 days 12 hours
[i] Rings (2017) [1080p] [YTS AG] 1.56 GB 3072 1881 2 days 1 day
[i] Las inocentes (HDRip) 1.92 GB 1775 384 2 days 11 hours
[i] Get.Out.2017.1080p.HC.WEBRip.x264.AAC2.0-STUTTERSHIT 3.4 GB 2550 1230 2 days 11 hours