Billions.S01E03.720p.WEB.rus.LostFilm.TV.mp4 - 2017-04-24 | [request_ebook] Data Communications and Networking, 4th edition | Trivial Pursuit (PS2) 2009 

The.Price.Is.Right.S45E142.WEB.x264.mp4

DOWNLOAD TORRENT

Posted on April 21, 2017 in Series » Misc , verified torrent

Size: 343.82 MB , Seeds: 3 , Peers: 1 ( Updated April 27, 2017 )

* Download via Magnet Link * To download files you need a Bittorrent Client ,

Scrape History ( seeds + peers )

Internal Files

The.Price.Is.Right.S45E142.WEB.x264.mp4
The.Price.Is.Right.S45E142.WEB.x264.mp4   343.64 MB

Hash Code

9343b9924430e753cb720d81c70154829d2ec1be

Description

SCREENSHOT



http://thetvdb.com/?tab=series&id=77072



General

Complete name : The.Price.Is.Right.S45E142.WEB.x264.mp4

Format : MPEG-4

Format profile : Base Media

Codec ID : isom (isom/iso2/avc1/mp41)

File size : 344 MiB

Duration : 37mn 56s

Overall bit rate mode : Variable

Overall bit rate : 1 266 Kbps

Encoded date : UTC 1904-01-01 00:00:00

Tagged date : UTC 1904-01-01 00:00:00

Writing application : Lavf56.40.101



Video

ID : 1

Format : AVC

Format/Info : Advanced Video Codec

Format profile : [email protected]/* */

Format settings, CABAC : Yes

Format settings, ReFrames : 4 frames

Codec ID : avc1

Codec ID/Info : Advanced Video Coding

Duration : 37mn 56s

Bit rate : 1 152 Kbps

Width : 768 pixels

Height : 432 pixels

Display aspect ratio : 16:9

Frame rate mode : Variable

Frame rate : 29.970 fps

Minimum frame rate : 29.412 fps

Maximum frame rate : 30.303 fps

Color space : YUV

Chroma subsampling : 4:2:0

Bit depth : 8 bits

Scan type : Progressive

Bits/(Pixel*Frame) : 0.116

Stream size : 314 MiB (91%)

Writing library : x264 core 148

Encoding settings : cabac=1 / ref=2 / deblock=1:0:0 / analyse=0x1:0x111 / me=hex / subme=6 / psy=1 / psy_rd=1.00:0.00 / mixed_ref=1 / me_range=16 / chroma_me=1 / trellis=1 / 8x8dct=0 / cqm=0 / deadzone=21,11 / fast_pskip=1 / chroma_qp_offset=-2 / threads=13 / lookahead_threads=2 / sliced_threads=0 / nr=0 / decimate=1 / interlaced=0 / bluray_compat=0 / constrained_intra=0 / bframes=3 / b_pyramid=2 / b_adapt=1 / b_bias=0 / direct=1 / weightb=1 / open_gop=0 / weightp=1 / keyint=30 / keyint_min=3 / scenecut=0 / intra_refresh=0 / rc_lookahead=30 / rc=abr / mbtree=1 / bitrate=1152 / ratetol=1.0 / qcomp=0.60 / qpmin=0 / qpmax=69 / qpstep=4 / vbv_maxrate=2304 / vbv_bufsize=2304 / nal_hrd=none / filler=0 / ip_ratio=1.40 / aq=1:1.00

Encoded date : UTC 1904-01-01 00:00:00

Tagged date : UTC 1904-01-01 00:00:00



Audio

ID : 2

Format : AAC

Format/Info : Advanced Audio Codec

Format profile : LC

Codec ID : 40

Duration : 37mn 56s

Bit rate mode : Variable

Bit rate : 96.0 Kbps

Maximum bit rate : 124 Kbps

Channel(s) : 2 channels

Channel positions : Front: L R

Sampling rate : 44.1 KHz

Frame rate : 43.066 fps (1024 spf)

Compression mode : Lossy

Stream size : 26.3 MiB (8%)

Default : Yes

Alternate group : 1

Encoded date : UTC 1904-01-01 00:00:00

Tagged date : UTC 1904-01-01 00:00:00

Torrent location

http://extra.to/torrent/5587836/The.Price.Is.Right.S45E142.WEB.x264.mp4.html

Trackers

Refresh Leechers : Updated April 27, 2017

1. udp://tracker.ilibr.org:80/announce

2. udp://zer0day.to:1337/announce

3. udp://p4p.arenabg.com:1337/announce

4. udp://inferno.demonoid.pw:3395/announce

5. udp://9.rarbg.com:2710/announce

Comments

You must log in to add a comment.

Embed Code

Sharing Widget

Related torrents

FILENAME SIZE SEEDS PEERS ADDED UPD
[i] The.Price.Is.Right.S45E143.WEB.x264.mp4 349.07 MB 8 1 5 days 4 days
[i] The.Price.Is.Right.S45E145.WEB.x264.mp4 347.32 MB 7 1 1 day 16 hours
[i] The.Price.Is.Right.S45E137.WEB.x264.mp4 345.57 MB 6 0 1 week 1 week
[i] The.Price.Is.Right.S45E140.WEB.x264 352.81 MB 5 2 1 week 2 days
[i] The.Price.Is.Right.S45E144.WEB.x264.mp4 348.32 MB 5 1 2 days 1 day
[i] The.Price.Is.Right.S45E135.WEB.x264 349.42 MB 4 1 2 weeks 1 day
[i] The.Price.Is.Right.S45E139.WEB.x264.mp4 345.82 MB 4 0 1 week 3 days
[i] The.Price.Is.Right.S45E138.WEB.x264.mp4 346.07 MB 4 0 1 week 6 days
[i] The.Price.Is.Right.S45E141.WEB.x264.mp4 345.07 MB 4 1 1 week 1 day
[i] The.Price.Is.Right.S45E134.WEB.x264.mp4 346.32 MB 3 0 1 week 5 days

Top Series ( auto generated report )

FILENAME SIZE SEEDS PEERS ADDED UPD
[i] Prison.Break.S05E04.HDTV.x264-KILLERS[ettv] 344.5 MB 7298 1658 1 day 14 hours
[i] The.Flash.2014.S03E19.HDTV.x264-SVA[eztv].mkv 257.41 MB 6184 1546 1 day 14 hours
[i] Marvels.Agents.of.S.H.I.E.L.D.S04E19.HDTV.x264-KILLERS[ettv] 252.5 MB 5017 1234 1 day 16 hours
[i] Supergirl.S02E18.WEB-DL.x264-FUM[ettv] 288.5 MB 4204 1200 2 days 1 day
[i] Arrow.S05E19.HDTV.x264-SVA[eztv].mkv 273.41 MB 3827 3687 13 hours 11 hours
[i] Gotham.S03E15.REPACK.HDTV.x264-KILLERS[ettv] 244.5 MB 3436 414 2 days 11 hours
[i] The.Flash.2014.S03E19.WEB-DL.x264-FUM[ettv] 253.57 MB 8607 1997 1 day 9 hours
[i] Into.the.Badlands.S02E06.WEB-DL.x264-FUM[ettv] 294.5 MB 3366 657 3 days 2 days
[i] Prison.Break.S05E04.720p.HDTV.x264-KILLERS[ettv] 1.06 GB 3342 863 1 day 14 hours
[i] Supergirl.S02E18.HDTV.x264-SVA[eztv].mkv 279.04 MB 3252 752 2 days 1 day