Read More | lets hurt tonight | Learn Basics of Content Inventory and Content Audit

The.Outcasts.2017.HDRip.XviD.AC3-iFT[PRiME]

DOWNLOAD TORRENT

Posted on April 21, 2017 in Movies » Misc , verified torrent

Size: 1.55 GB , Seeds: 33 , Peers: 30 ( Updated April 22, 2017 - Refresh )

* Download via Magnet Link * To download files you need a Bittorrent Client ,

Scrape History ( seeds + peers )

Internal Files

The.Outcasts.2017.HDRip.XviD.AC3-iFT[PRiME]
Please Support!! Read More!!!.txt   334 Byte
Sample[PRiME].avi   19.43 MB
The.Outcasts.2017.HDRip.XviD.AC3-iFT[PRiME].avi   1.53 GB
Torrent Downloaded From 1337x.to.txt   69 Byte
Torrent Downloaded From peertorrent.com.txt   446 Byte

Hash Code

48c574035197129dcb94ad19a24dc15e1c78a3f0

Description


The.Outcasts.2017.HDRip.XviD.AC3-iFT[PRiME]

ImDb: http://www.imdb.com/title/tt2597760

SCREENSHOT

Complete name : The.Outcasts.2017.HDRip.XviD.AC3-iFT[PRiME].avi
Format : AVI
Format/Info : Audio Video Interleave
Format profile : OpenDML
Format settings : rec
File size : 1.53 GiB
Duration : 1 h 30 min
Overall bit rate : 2 425 kb/s
Writing application : AVI-Mux GUI 1.17.8.3, Feb 16 201019:42:50

Video
ID : 0
Format : MPEG-4 Visual
Format profile : Advanced [email protected]/* */
Format settings, BVOP : 2
Format settings, QPel : No
Format settings, GMC : No warppoints
Format settings, Matrix : Default (H.263)
Muxing mode : Packed bitstream
Codec ID : XVID
Codec ID/Hint : XviD
Duration : 1 h 30 min
Bit rate : 2 227 kb/s
Width : 720 pixels
Height : 384 pixels
Display aspect ratio : 1.85:1
Frame rate : 25.000 FPS
Color space : YUV
Chroma subsampling : 4:2:0
Bit depth : 8 bits
Scan type : Progressive
Compression mode : Lossy
Bits/(Pixel*Frame) : 0.322
Stream size : 1.40 GiB (92%)
Writing library : XviD 73

Audio
ID : 1
Format : AC-3
Format/Info : Audio Coding 3
Mode extension : CM (complete main)
Format settings, Endianness : Big
Codec ID : 2000
Duration : 1 h 30 min
Bit rate mode : Constant
Bit rate : 192 kb/s
Channel(s) : 2 channels
Channel positions : Front: L R
Sampling rate : 48.0 kHz
Frame rate : 31.250 FPS (1536 spf)
Compression mode : Lossy
Stream size : 124 MiB (8%)
Alignment : Aligned on interleaves
Interleave, duration : 64 ms (1.60 video frames)
Interleave, preload duration : 192 ms
Title : The.Outcasts.2017.1080p.WEBRip.AAC2.0.x264-FGT - [0] English

SCREENSHOT

Click Image To View Full Size

SCREENSHOT
Click To View Screenshot
Click To View Screenshot
Click To View Screenshot

Torrent location

http://www.1337x.to/torrent/2173083/The-Outcasts-2017-HDRip-XviD-AC3-iFT-PRiME/

Trackers

Refresh Leechers : Updated April 22, 2017

1. http://explodie.org:6969/announce

2. http://tracker.tfile.me/announce

3. http://bigfoot1942.sektori.org:6969/announce

4. udp://eddie4.nl:6969/announce

5. udp://tracker4.piratux.com:6969/announce

6. udp://tracker.trackerfix.com:80/announce

7. udp://tracker.pomf.se:80/announce

8. udp://torrent.gresille.org:80/announce

9. udp://9.rarbg.me:2710/announce

10. udp://tracker.leechers-paradise.org:6969/announce

11. udp://glotorrents.pw:6969/announce

12. udp://tracker.opentrackr.org:1337/announce

13. udp://tracker.blackunicorn.xyz:6969/announce

14. udp://tracker.internetwarriors.net:1337/announce

15. udp://p4p.arenabg.ch:1337/announce

16. udp://tracker.coppersurfer.tk:6969/announce

17. udp://9.rarbg.to:2710/announce

18. udp://tracker.openbittorrent.com:80/announce

19. udp://glotorrents.pw:6969/announce

20. udp://eddie4.nl:6969/announce

21. udp://explodie.org:6969/announce

22. udp://9.rarbg.me:2710/announce

23. udp://9.rarbg.to:2710/announce

24. udp://9.rarbg.com:2710/announce

25. udp://p4p.arenabg.com:1337/announce

26. udp://p4p.arenabg.ch:1337/announce

27. udp://ipv4.tracker.harry.lu:80/announce

28. udp://tracker.zer0day.to:1337/announce

29. udp://tracker.opentrackr.org:1337/announce

30. udp://tracker.leechers-paradise.org:6969/announce

31. udp://tracker.coppersurfer.tk:6969/announce

32. udp://tracker.ilibr.org:80/announce

33. udp://tracker.ilibr.org:6969/announce

Comments

You must log in to add a comment.

Embed Code

Sharing Widget

Top Movies ( auto generated report )

FILENAME SIZE SEEDS PEERS ADDED UPD
[i] Get.Out.2017.720p.HC.HDRip.XviD.AC3-EVO[EtHD] 2.5 GB 2998 843 3 days 7 hours
[i] A Dog's Purpose (2017) [720p] [YTS AG] 734.31 MB 4012 2214 4 days 2 days
[i] Gold (2016) [720p] [YTS AG] 881.47 MB 3451 1636 4 days 1 day
[i] Gold (2016) [1080p] [YTS AG] 1.83 GB 3342 1727 4 days 3 days
[i] Rings (2017) [1080p] [YTS AG] 1.56 GB 3072 1881 4 days 3 days
[i] Rings (2017) [720p] [YTS AG] 758.1 MB 2972 1380 4 days 1 day
[i] A Dog's Purpose (2017) [1080p] [YTS AG] 1.52 GB 2887 1464 4 days 21 hours
[i] Get.Out.2017.1080p.HC.WEBRip.x264.AAC2.0-STUTTERSHIT 3.4 GB 2014 855 3 days 1 day
[i] Las inocentes (HDRip) 1.92 GB 1775 384 3 days 2 days
[i] All We Had (HDRip) 1.87 GB 1520 545 3 days 2 days