La llegada (2016) 720p BDRip x264 enlace de descarga gratuita | La llegada (2016) BluRay completa de la película | La llegada (2016) descarga gratuita la película completa

The.Driver.1978.1080p.BluRay.x264.Dual.Audio.{Hindi.Org.DD.2.0-Eng}-maverick

DOWNLOAD TORRENT

Posted on April 20, 2017 in Movies » Misc , verified torrent

Size: 1.39 GB , Seeds: 7 , Peers: 58 ( Updated April 21, 2017 - Refresh )

* Download via Magnet Link * To download files you need a Bittorrent Client ,

Scrape History ( seeds + peers )

Internal Files

The.Driver.1978.1080p.BluRay.x264.Dual.Audio.{Hindi.Org.DD.2.0-Eng}-maverick
Poster.jpg   84.39 KB
06.png   956.94 KB
05.png   1.02 MB
04.png   1.12 MB
03.png   1.44 MB
01.png   1.53 MB
02.png   1.64 MB
Sample.mkv   22.3 MB
The.Driver.1978.1080p.BluRay.x264.Dual.Audio.{Hindi.Org.DD.2.0-Eng}-maverick.mkv   1.36 GB

Hash Code

bc384afaa51548167a6e1ee7ab213f136b842746

Description







The.Driver.1978.1080p.BluRay.x264.Dual.Audio.{Hindi.Org.DD.2.0-Eng}-maverick







SCREENSHOT









Code:

General
Complete name : The.Driver.1978.1080p.BluRay.x264.Dual.Audio.{Hindi.Org.DD.2.0-Eng}-maverick.mkv
Format : Matroska
Format version : Version 4 / Version 2
File size : 1.36 GiB
Duration : 1h 29mn
Overall bit rate : 2 173 Kbps
Movie name : The.Driver.1978.1080p.BluRay.x264.Dual.Audio.{Hindi.Org.DD.2.0-Eng}-maverick
Encoded date : UTC 2017-04-20 18:33:31
Writing application : mkvmerge v8.6.1 ('Flying') 64bit
Writing library : libebml v1.3.3 + libmatroska v1.4.4

Video
ID : 1
Format : AVC
Format/Info : Advanced Video Codec
Format profile : [email protected]/* */
Format settings, CABAC : Yes
Format settings, ReFrames : 5 frames
Codec ID : V_MPEG4/ISO/AVC
Duration : 1h 29mn
Bit rate : 1 885 Kbps
Width : 1 920 pixels
Height : 1 040 pixels
Display aspect ratio : 1.85:1
Frame rate mode : Constant
Frame rate : 23.976 (24000/1001) fps
Original frame rate : 23.976 (23976/1000) fps
Color space : YUV
Chroma subsampling : 4:2:0
Bit depth : 8 bits
Scan type : Progressive
Bits/(Pixel*Frame) : 0.039
Stream size : 1.18 GiB (87%)
Title : maverick
Writing library : x264 core 132 r2 76a5c3a
Language : English
Default : Yes
Forced : Yes
Color range : Limited
Color primaries : BT.709
Matrix coefficients : BT.709

Audio #1
ID : 2
Format : AC-3
Format/Info : Audio Coding 3
Mode extension : CM (complete main)
Format settings, Endianness : Big
Codec ID : A_AC3
Duration : 1h 29mn
Bit rate mode : Constant
Bit rate : 192 Kbps
Channel(s) : 2 channels
Channel positions : Front: L R
Sampling rate : 48.0 KHz
Frame rate : 31.250 fps (1536 spf)
Compression mode : Lossy
Stream size : 123 MiB (9%)
Title : maverick
Language : Hindi
Default : Yes
Forced : Yes

Audio #2
ID : 3
Format : AAC
Format/Info : Advanced Audio Codec
Format profile : LC
Codec ID : A_AAC
Duration : 1h 29mn
Bit rate : 93.8 Kbps
Channel(s) : 2 channels
Channel positions : Front: L R
Sampling rate : 48.0 KHz
Frame rate : 46.875 fps (1024 spf)
Compression mode : Lossy
Stream size : 59.9 MiB (4%)
Title : maverick
Language : English
Default : No
Forced : No

Text
ID : 4
Format : UTF-8
Codec ID : S_TEXT/UTF8
Codec ID/Info : UTF-8 Plain Text
Duration : 1h 24mn
Bit rate : 25 bps
Count of elements : 526
Stream size : 15.8 KiB (0%)
Title : maverick
Language : English
Default : Yes
Forced : Yes










Hindi Audio Source Original VCD.......Thanks Hon3yHD





Note: No Watermarks/Tags in Audio & Video SCREENSHOT SCREENSHOT

SCREENSHOT SCREENSHOT

SCREENSHOT SCREENSHOT







Thanks To Extratorrent Admins and Mods........Keep it up Guys





**Please Seed After Download**

Torrent location

http://extra.to/torrent/5587440/The.Driver.1978.1080p.BluRay.x264.Dual.Audio.%7BHindi.Org.DD.2.0-Eng%7D-maverick.html

Trackers

Refresh Leechers : Updated April 21, 2017

1. udp://9.rarbg.me:2770/announce

2. udp://9.rarbg.to:2740/announce

3. udp://glotorrents.pw:6969/announce

4. udp://p4p.arenabg.ch:1337/announce

5. udp://tracker.aletorrenty.pl:2710/announce

6. udp://tracker.blackunicorn.xyz:6969/announce

7. udp://tracker.coppersurfer.tk:6969/announce

8. udp://tracker.piratepublic.com:1337/announce

9. udp://tracker.opentrackr.org:1337/announce

10. udp://tracker.sktorrent.net:6969/announce

11. udp://zer0day.ch:1337/announce

Comments

You must log in to add a comment.

Embed Code

Sharing Widget

Related torrents

FILENAME SIZE SEEDS PEERS ADDED UPD
[i] The.Driver.1978.1080p.BluRay.X264-AMIABLE [PublicHD] 8.75 GB 0 1 3 years 7 months
[i] The Driver (1978) 1080p BrRip x264 - YIFY 1.24 GB 0 0 3 years 8 months
[i] The.Driver.1978.1080p.BluRay.x264.anoXmous 1.38 GB 0 0 3 years 8 months

Top Movies ( auto generated report )

FILENAME SIZE SEEDS PEERS ADDED UPD
[i] Rings.2017.BRRip.XViD-ETRG 712.3 MB 5304 3488 3 days 2 days
[i] A Dog's Purpose (2017) [720p] [YTS AG] 734.31 MB 4012 2214 2 days 12 hours
[i] Get.Out.2017.720p.HC.HDRip.XviD.AC3-EVO[EtHD] 2.5 GB 3446 1856 2 days 1 day
[i] Gold (2016) [720p] [YTS AG] 881.47 MB 3391 1995 2 days 1 day
[i] Rings (2017) [720p] [YTS AG] 758.1 MB 3371 2294 2 days 1 day
[i] Gold (2016) [1080p] [YTS AG] 1.83 GB 3342 1727 2 days 1 day
[i] A Dog's Purpose (2017) [1080p] [YTS AG] 1.52 GB 3317 1615 2 days 12 hours
[i] Rings (2017) [1080p] [YTS AG] 1.56 GB 3072 1881 2 days 1 day
[i] Las inocentes (HDRip) 1.92 GB 1775 384 2 days 11 hours
[i] Get.Out.2017.1080p.HC.WEBRip.x264.AAC2.0-STUTTERSHIT 3.4 GB 2550 1230 2 days 11 hours