BitLord.com | The Royals | Blink-182 - Parking Lot [Single] (2017) [Mp3~320kbps] [Isohunt.to]

Bit Torrent Scene a public file sharing platform Home Categories About

Warning! Use a VPN When Downloading Torrents!
Your IP Address is . Location is
Avoid LAWSUITS and FINES! Hide your IP ADDRESS with a VPN!
We strongly recommend using Trust.Zone VPN to anonymize your torrenting. It's FREE!
Get VPN Now for FREE!

The Blacklist S03E10 HDTV x264-FLEET[rartv]

DOWNLOAD TORRENT

Posted on January 15, 2016 in Series » Misc , verified torrent

Size: 256.82 MB , Seeds: 58 , Peers: 2 ( Updated July 2, 2016 - Refresh )

Quality: Audio 9/10 - Video 9/10 ( defined by users )

* Download via Magnet Link

Loading...

Scrape History ( seeds + peers )

Internal Files

The.Blacklist.S03E10.HDTV.x264-FLEET[rarbg]
RARBG.com.txt   34 Byte
The.Blacklist.S03E10.HDTV.x264-FLEET.mp4   256.63 MB
the.blacklist.s03e10.hdtv.x264-fleet.nfo   696 Byte

Hash Code

d3bd1af780c915f88b759673dfd1a6b6ba3b4355

Description



http://rarbg.to

The.Blacklist.S03E10.HDTV.x264-FLEET[rartv]



SCREENSHOT

Screens :



SCREENSHOT

Mediainfo :



Video

ID : 1

Format : AVC

Format/Info : Advanced Video Codec

Format profile : [email protected]

Format settings, CABAC : Yes

Format settings, ReFrames : 5 frames

Codec ID : avc1

Codec ID/Info : Advanced Video Coding

Duration : 41mn 55s

Bit rate : 718 Kbps

Width : 720 pixels

Height : 404 pixels

Display aspect ratio : 16:9

Frame rate mode : Constant

Frame rate : 23.976 (24000/1001) fps

Color space : YUV

Chroma subsampling : 4:2:0

Bit depth : 8 bits

Scan type : Progressive

Bits/(Pixel*Frame) : 0.103

Stream size : 215 MiB (84%)

Writing library : x264 core 148 r2638 7599210

Encoding settings : cabac=1 / ref=5 / deblock=1:0:0 / analyse=0x3:0x113 / me=umh / subme=8 / psy=1 / psy_rd=1.00:0.00 / mixed_ref=1 / me_range=16 / chroma_me=1 / trellis=1 / 8x8dct=1 / cqm=0 / deadzone=21,11 / fast_pskip=1 / chroma_qp_offset=-2 / threads=13 / lookahead_threads=2 / sliced_threads=0 / nr=0 / decimate=1 / interlaced=0 / bluray_compat=0 / constrained_intra=0 / bframes=3 / b_pyramid=2 / b_adapt=2 / b_bias=0 / direct=3 / weightb=1 / open_gop=0 / weightp=2 / keyint=250 / keyint_min=23 / scenecut=40 / intra_refresh=0 / rc_lookahead=50 / rc=crf / mbtree=1 / crf=19.0 / qcomp=0.60 / qpmin=0 / qpmax=69 / qpstep=4 / ip_ratio=1.40 / aq=1:1.00

Encoded date : UTC 2011-09-08 11:43:25

Tagged date : UTC 2011-09-08 11:43:25

Color range : Limited

Matrix coefficients : BT.709



Audio

ID : 2

Format : AAC

Format/Info : Advanced Audio Codec

Format profile : LC

Codec ID : 40

Duration : 41mn 55s

Bit rate mode : Variable

Bit rate : 132 Kbps

Maximum bit rate : 223 Kbps

Channel(s) : 2 channels

Channel positions : Front: L R

Sampling rate : 48.0 KHz

Frame rate : 46.875 fps (1024 spf)

Compression mode : Lossy

Stream size : 39.5 MiB (15%)

Encoded date : UTC 2011-09-08 11:43:25

Tagged date : UTC 2011-09-08 11:43:25


Torrent location

http://kat.cr/the-blacklist-s03e10-hdtv-x264-fleet-rartv-t11907326.html

Trackers

Refresh Leechers : Updated July 2, 2016

1. udp://tracker.coppersurfer.tk:6969/announce

2. udp://tracker.openbittorrent.com:80/announce

3. udp://glotorrents.pw:6969/announce

4. udp://tracker.publicbt.com:80/announce

5. http://tracker.trackerfix.com/announce

6. udp://tracker.opentrackr.org:1337/announce

7. udp://9.rarbg.me:2710/announce

8. udp://9.rarbg.to:2710/announce

Comments

You must log in to add a comment.

shuichi •144 2016-01-15 20:08:12

AUDIO: 9 - VIDEO: 9

Thanks for the upload.

Embed Code

Sharing Widget

Related torrents

FILENAME SIZE SEEDS PEERS ADDED UPD
[i]
[i]
The Blacklist S03E10 INTERNAL HDTV x264-KILLERS[ettv]
Series - Misc , Quality: Audio 9/10 - Video 9/10
250.5 MB 267 4 1 year 8 months
[i] The Blacklist S03E10 HDTV XviD-FUM[ettv] 350.5 MB 30 2 1 year 8 months
[i] The Blacklist S03E10 INTERNAL 720p HDTV x264-KILLERS[rartv] 841.07 MB 19 2 1 year 8 months
[i] The Blacklist S03E10 720p HDTV x264-FLEET[rartv] 813.07 MB 18 1 1 year 8 months
[i] The Blacklist S03E10 INTERNAL HDTV x264-KILLERS[rartv] 248.57 MB 17 1 1 year 8 months
[i] The Blacklist S03E10 720p HDTV x265-RMTeam [720P][HEVC] 174.58 MB 4 0 1 year 8 months
[i] The Blacklist S03E10 720p HDTV x265 HEVC - YSTEAM 158.96 MB 3 0 1 year 8 months
[i] The Blacklist S03E10 INTERNAL 720p HDTV HEVC x265-RMTeam[720P][HEVC] 165.64 MB 1 0 1 year 8 months
[i] The Blacklist S03E10 INTERNAL 720p HDTV x264-KILLERS
posted by brasseur0ph in Series - Misc
840.88 MB 0 0 1 year 8 months

Top Series ( auto generated report )

FILENAME SIZE SEEDS PEERS ADDED UPD
[i] The.Flash.2014.S03E17.HDTV.x264-LOL[ettv] 272.5 MB 11580 1850 1 day 6 hours
[i] Supergirl.S02E16.HDTV.x264-LOL[ettv] 278.5 MB 7145 1311 2 days 1 day
[i] DCs.Legends.of.Tomorrow.S02E15.HDTV.x264-LOL[ettv] 294.5 MB 5975 941 1 day 4 hours
[i] Taken.2017.S01E04.HDTV.x264-KILLERS[ettv] 242.74 MB 4169 760 2 days 1 day
[i] Arrow.S05E17.HDTV.x264-LOL[ettv] 256.5 MB 3891 3770 5 hours 3 hours
[i] Arrow.S05E16.HDTV.x264-LOL[ettv] 250.5 MB 3837 545 1 week 1 day
[i] The.Walking.Dead.S07E14.720p.WEB-DL.H264-FUM[ettv] 1.48 GB 2714 410 2 days 1 day
[i] Legion.S01E06.WEB-DL.XviD-FUM[ettv] 428.5 MB 2482 201 6 days 18 hours
[i] Scorpion.S03E20.HDTV.x264-LOL[ettv] 294.5 MB 2405 382 2 days 1 day
[i] Quantico.S02E14.HDTV.x264-LOL[ettv] 246.5 MB 2322 376 2 days 1 day
advertising ( remove )