Dramat psychologiczny | Anna Faris | Science fiction
Warning! Use a VPN When Downloading Torrents!
Your IP Address is . Location is
Avoid LAWSUITS and FINES! Hide your IP ADDRESS with a VPN!
We strongly recommend using Trust.Zone VPN to anonymize your torrenting. It's FREE!
Get VPN Now for FREE!

Scooby-Doo! and WWE: Curse of the Speed Demon (2016) 1080P WEB-DL DD5 1 H 264

DOWNLOAD TORRENT

Posted on July 26, 2016 in Movies » Animation , verified torrent

Size: 3.16 GB , Seeds: 9 , Peers: 1 ( Updated November 2, 2016 - Refresh )

* Download via Magnet Link * To download files you need a Bittorrent Client ,

Scrape History ( seeds + peers )

Internal Files

Scooby-Doo! and WWE Curse of the Speed Demon (2016).mkv
Scooby-Doo! and WWE Curse of the Speed Demon (2016).mkv   3.15 GB

Hash Code

dba61c13b52cb5393f7da0bc530c1dfaa67ddc8a

Description

Storyline

It's pedal to the metal as Scooby-Doo, Shaggy and the gang team up with the superstars of WWE in this hi-octane, all-new original movie! When Scooby and Mystery Inc. visit an off-road racing competition, it's not long before strange events start to occur. A mysterious phantom racer, known only as Inferno, is causing chaos and determined to sabotage the race. It's up Scooby-Doo, Shaggy and their new driving partner, The Undertaker, to save the race and solve the mystery. Along with other WWE superstars such as Triple H, Paige and Shamus, it's time to start your engine and your appetite because Scooby-Doo and WWE are chasing down adventure and laughs just for you!







Video

ID : 3

Format : AVC

Format/Info : Advanced Video Codec

Format profile : [email protected]/* */

Format settings, CABAC : Yes

Format settings, ReFrames : 4 frames

Codec ID : V_MPEG4/ISO/AVC

Duration : 1h 20mn

Bit rate : 5 086 Kbps

Width : 1 916 pixels

Height : 1 076 pixels

Display aspect ratio : 16:9

Frame rate mode : Constant

Frame rate : 23.976 fps

Color space : YUV

Chroma subsampling : 4:2:0

Bit depth : 8 bits

Scan type : Progressive

Bits/(Pixel*Frame) : 0.103

Stream size : 2.86 GiB (91%)

Language : English

Default : Yes

Forced : No

Color range : Limited

Color primaries : BT.709

Transfer characteristics : BT.709

Matrix coefficients : BT.709



Audio #1

ID : 1

Format : AAC

Format/Info : Advanced Audio Codec

Format profile : LC

Codec ID : A_AAC

Duration : 1h 20mn

Bit rate : 126 Kbps

Channel(s) : 2 channels

Channel positions : Front: L R

Sampling rate : 48.0 KHz

Frame rate : 46.875 fps (1024 spf)

Compression mode : Lossy

Stream size : 72.7 MiB (2%)

Language : English

Default : Yes

Forced : No



Audio #2

ID : 2

Format : AC-3

Format/Info : Audio Coding 3

Mode extension : CM (complete main)

Format settings, Endianness : Big

Codec ID : A_AC3

Duration : 1h 20mn

Bit rate mode : Constant

Bit rate : 384 Kbps

Channel(s) : 6 channels

Channel positions : Front: L C R, Side: L R, LFE

Sampling rate : 48.0 KHz

Frame rate : 31.250 fps (1536 spf)

Compression mode : Lossy

Stream size : 221 MiB (7%)

Language : English

Default : No

Forced : No



Text

ID : 4

Format : UTF-8

Codec ID : S_TEXT/UTF8

Codec ID/Info : UTF-8 Plain Text

Duration : 1h 18mn

Bit rate : 118 bps

Count of elements : 1594

Stream size : 67.7 KiB (0%)

Language : English

Default : Yes

Forced : No









SCREENSHOT









SCREENSHOT









SCREENSHOT









SOURCE:http://itunes.apple.com/us/movie/scooby-doo!-wwe-curse-speed/id1109621339

Torrent location

http://extratorrent4-cc.unblocked.lol/torrent/5068485/Scooby-Doo%21+and+WWE%3A+Curse+of+the+Speed+Demon+1080P+WEB-DL+DD5+1+H+264.html

Trackers

Refresh Leechers : Updated November 2, 2016

1. udp://tracker.istole.it:80/announce

2. udp://tracker.coppersurfer.tk:6969/announce

3. udp://tracker.openbittorrent.com:80/announce

4. udp://tracker.publicbt.com:80/announce

5. udp://coppersurfer.tk:6969/announce

6. udp://glotorrents.pw:6969/announce

7. udp://tracker4.piratux.com:6969/announce

8. udp://open.demonii.com:1337/announce

9. udp://12.rarbg.me:80/announce

Comments

You must log in to add a comment.

Embed Code

Sharing Widget

Related torrents

FILENAME SIZE SEEDS PEERS ADDED UPD
[i] Scooby.Doo.And.WWE.Curse.Of.The.Speed.Demon.2016.DVDRip.XviD-EVO 976.82 MB 165 44 8 months 6 months
[i] Scooby.Doo.Shaggys.Showdown.2017.720p.WEBRip.x264.AAC-ETRG 628.3 MB 73 211 1 month 1 month
[i] Scooby-Doo! Shaggy's Showdown 2017 720p WEBRip 600 MB - iExTV 602.3 MB 69 76 1 month 1 month
[i] Scooby-Doo Y El Monstruo De la Luna SPANISH ESPAÑOL DVDRip XviD-DVXT
posted by hkcrew in Movies - Misc
1002.3 MB 44 2 1 year 11 months
[i] Scooby-Doo! And Kiss: Rock and Roll Mystery (2015) 720p BrRip x264 - YIFY 696.5 MB 40 7 1 year 7 months
[i] Scooby-Doo First Frights-RELOADED 1.61 GB 30 1 5 years 1 year
[i] Aloha, Scooby-Doo! (2005) 1080p BrRip x264 - YIFY 1.1 GB 27 5 3 years 1 year
[i] Scooby.Doo.Shaggys.Showdown.2017.HDRip.XviD.AC3-EVO[PRiME] 1.21 GB 22 30 1 month 1 month
[i] Scooby.Doo.Big.Top.2012.STV.FRENCH.DVDRip.XviD-Click 700.07 MB 19 0 4 years 1 year
[i] Scooby Doo And WWE Curse Of The Speed Demon 2016 DVDRip XviD-EVO 976.82 MB 19 2 8 months 4 months

Top Movies ( auto generated report )

FILENAME SIZE SEEDS PEERS ADDED UPD
[i] Monster Trucks (2016) [720p] [YTS AG] 770.79 MB 4672 3999 1 day 18 hours
[i] Monster Trucks (2016) [1080p] [YTS AG] 1.59 GB 3738 3168 1 day 18 hours
[i] Monster.Trucks.2016.480p.HDRip.XViD.AC3-ETRG 1.39 GB 3667 2874 2 days 8 hours
[i] Warrior s Gate (2016) [720p] [YTS AG] 796.33 MB 2850 2297 1 day 18 hours
[i] The.Rift.2016.HDRip.XViD-ETRG 710.9 MB 2495 1636 3 days 2 days
[i] Warrior s Gate (2016) [1080p] [YTS AG] 1.64 GB 2268 1573 1 day 18 hours
[i] The.Bye.Bye.Man.2017.HDRip.XViD-ETRG 707.1 MB 2108 1587 2 days 1 day
[i] Monster.Trucks.2016.1080p.WEB-DL.DD5.1.H264-FGT 3.61 GB 1299 610 2 days 8 hours
[i] Vengeance- A Love Story (2017) [720p] [YTS AG] 721.47 MB 1854 883 2 days 14 hours
[i] The Bye Bye Man (2017) [720p] [YTS AG] 740.34 MB 1753 1346 1 day 18 hours