Siguiente | BitLord.com | Download Wini – “Ha-nakpom”

Rings.2017.BRRip.XviD.AC3-iFT[PRiME]

DOWNLOAD TORRENT

Posted on April 20, 2017 in Movies » Misc , verified torrent

Size: 1.73 GB , Seeds: 30 , Peers: 25 ( Updated April 21, 2017 - Refresh )

* Download via Magnet Link * To download files you need a Bittorrent Client ,

Scrape History ( seeds + peers )

Internal Files

Rings.2017.BRRip.XviD.AC3-iFT[PRiME]
Please Support!! Read More!!!.txt   334 Byte
Rings.2017.BRRip.XviD.AC3-iFT[PRiME].avi   1.71 GB
Sample[PRiME].avi   17.58 MB
Torrent Downloaded From 1337x.to.txt   69 Byte
Torrent Downloaded From peertorrent.com.txt   446 Byte

Hash Code

6edae1bed20e16458c5c79a8010c134eab0ba41c

Description


Rings.2017.BRRip.XviD.AC3-iFT[PRiME]

ImDb: http://www.imdb.com/title/tt0498381

SCREENSHOT

Complete name : Rings.2017.BRRip.XviD.AC3-iFT[PRiME].avi
Format : AVI
Format/Info : Audio Video Interleave
Format profile : OpenDML
Format settings : rec
File size : 1.71 GiB
Duration : 1 h 42 min
Overall bit rate : 2 402 kb/s
Writing application : AVI-Mux GUI 1.17.8.3, Feb 16 201019:42:50

Video
ID : 0
Format : MPEG-4 Visual
Format profile : Advanced [email protected]/* */
Format settings, BVOP : 2
Format settings, QPel : No
Format settings, GMC : No warppoints
Format settings, Matrix : Default (H.263)
Muxing mode : Packed bitstream
Codec ID : XVID
Codec ID/Hint : XviD
Duration : 1 h 42 min
Bit rate : 1 948 kb/s
Width : 720 pixels
Height : 400 pixels
Display aspect ratio : 16:9
Frame rate : 23.976 (23976/1000) FPS
Color space : YUV
Chroma subsampling : 4:2:0
Bit depth : 8 bits
Scan type : Progressive
Compression mode : Lossy
Bits/(Pixel*Frame) : 0.282
Stream size : 1.39 GiB (81%)
Writing library : XviD 73

Audio
ID : 1
Format : AC-3
Format/Info : Audio Coding 3
Mode extension : CM (complete main)
Format settings, Endianness : Big
Codec ID : 2000
Duration : 1 h 42 min
Bit rate mode : Constant
Bit rate : 448 kb/s
Channel(s) : 6 channels
Channel positions : Front: L C R, Side: L R, LFE
Sampling rate : 48.0 kHz
Frame rate : 31.250 FPS (1536 spf)
Compression mode : Lossy
Stream size : 327 MiB (19%)
Alignment : Aligned on interleaves
Interleave, duration : 64 ms (1.53 video frames)
Interleave, preload duration : 192 ms
Title : ac3

SCREENSHOT

Click Image To View Full Size

SCREENSHOT
Click To View Screenshot
Click To View Screenshot
Click To View Screenshot

Torrent location

http://www.1337x.to/torrent/2171797/Rings-2017-BRRip-XviD-AC3-iFT-PRiME/

Trackers

Refresh Leechers : Updated April 21, 2017

1. http://explodie.org:6969/announce

2. http://tracker.tfile.me/announce

3. http://bigfoot1942.sektori.org:6969/announce

4. udp://eddie4.nl:6969/announce

5. udp://tracker4.piratux.com:6969/announce

6. udp://tracker.trackerfix.com:80/announce

7. udp://tracker.pomf.se:80/announce

8. udp://torrent.gresille.org:80/announce

9. udp://9.rarbg.me:2710/announce

10. udp://tracker.leechers-paradise.org:6969/announce

11. udp://glotorrents.pw:6969/announce

12. udp://tracker.opentrackr.org:1337/announce

13. udp://tracker.blackunicorn.xyz:6969/announce

14. udp://tracker.internetwarriors.net:1337/announce

15. udp://p4p.arenabg.ch:1337/announce

16. udp://tracker.coppersurfer.tk:6969/announce

17. udp://9.rarbg.to:2710/announce

18. udp://tracker.openbittorrent.com:80/announce

19. udp://glotorrents.pw:6969/announce

20. udp://eddie4.nl:6969/announce

21. udp://explodie.org:6969/announce

22. udp://9.rarbg.me:2710/announce

23. udp://9.rarbg.to:2710/announce

24. udp://9.rarbg.com:2710/announce

25. udp://p4p.arenabg.com:1337/announce

26. udp://p4p.arenabg.ch:1337/announce

27. udp://ipv4.tracker.harry.lu:80/announce

28. udp://tracker.zer0day.to:1337/announce

29. udp://tracker.opentrackr.org:1337/announce

30. udp://tracker.leechers-paradise.org:6969/announce

31. udp://tracker.coppersurfer.tk:6969/announce

32. udp://tracker.ilibr.org:80/announce

33. udp://tracker.ilibr.org:6969/announce

Comments

You must log in to add a comment.

Embed Code

Sharing Widget

Related torrents

FILENAME SIZE SEEDS PEERS ADDED UPD
[i] Rings.2017.BRRip.XViD-ETRG 712.3 MB 5304 3488 3 days 2 days
[i] Rings.2017.BRRip.XviD.AC3-EVO[PRiME] 1.41 GB 316 148 3 days 2 days
[i] Rings.2017.BRRip.XviD.AC3-EVO 1.41 GB 73 28 3 days 2 days
[i] Rings.2017.BRRip.XviD.AC3-EVO 1.41 GB 52 19 3 days 2 days

Top Movies ( auto generated report )

FILENAME SIZE SEEDS PEERS ADDED UPD
[i] Rings.2017.BRRip.XViD-ETRG 712.3 MB 5304 3488 3 days 2 days
[i] A Dog's Purpose (2017) [720p] [YTS AG] 734.31 MB 4012 2214 2 days 12 hours
[i] Get.Out.2017.720p.HC.HDRip.XviD.AC3-EVO[EtHD] 2.5 GB 3446 1856 2 days 1 day
[i] Gold (2016) [720p] [YTS AG] 881.47 MB 3391 1995 2 days 1 day
[i] Rings (2017) [720p] [YTS AG] 758.1 MB 3371 2294 2 days 1 day
[i] Gold (2016) [1080p] [YTS AG] 1.83 GB 3342 1727 2 days 1 day
[i] A Dog's Purpose (2017) [1080p] [YTS AG] 1.52 GB 3317 1615 2 days 12 hours
[i] Rings (2017) [1080p] [YTS AG] 1.56 GB 3072 1881 2 days 1 day
[i] Las inocentes (HDRip) 1.92 GB 1775 384 2 days 11 hours
[i] Get.Out.2017.1080p.HC.WEBRip.x264.AAC2.0-STUTTERSHIT 3.4 GB 2550 1230 2 days 11 hours