Download | موسيقى | elite news

Outcast S02e02[Mux - 720p - H264 - Ita Eng Ac3 - Sub Ita Eng] WEBMux

DOWNLOAD TORRENT

Posted on April 21, 2017 in Series » Misc

Size: 1.55 GB , Seeds: 25 , Peers: 9 ( Updated April 21, 2017 - Refresh )

* Download via Magnet Link * To download files you need a Bittorrent Client ,

Scrape History ( seeds + peers )

Internal Files

Outcast.2x02.Andra.Tutto.Bene.ITA.ENG.720p.WEBMux.x264-Morpheus.mkv
Outcast.2x02.Andra.Tutto.Bene.ITA.ENG.720p.WEBMux.x264-Morpheus.mkv   1.55 GB

Hash Code

2e23f930998e3171803c6f5d577287082a46f279

Description

SCREENSHOT

GIUSEPPEiCV & LITTLELINX

HANNO IL PIACERE DI PRESENTARE

SCREENSHOT

OUTCAST

STAGIONE 2

WEBMux 720p

Dual Language ITa - ENG

Sub ITA - ENG

Trovi tutte le nostre serie su

IL CORSARO VERDE

www.icv-crew.org



.: Dati Serie :.



Nazione : Stati Uniti d'America

Anno : 2017

Genere : horror, drammatico, thriller

Stagioni 2

Episodi : 10

Durata : 45 min circa

Lingua : ITA - ENG

Cast :

• Patrick Fugit: Kyle Barnes

• Philip Glenister: reverendo Anderson

• Wrenn Schmidt: Megan Holter

• David Denman: Mark Holter

• Julia Crockett: Sarah Barns

• Kate Lyn Sheil: Allison

• Reg E. Cathey: Giles





Kyle Barnes has had a series of misfortunes in his life; his mother would beat him as a and he was accused of attacking his own daughter. After attending an exorcism in his native town, he is convinced his mother and his wife were possessed and he was not the source of them going bad. He therefore teams up with Reverend Anderson to try and save people that are possessed by demons while putting up with the residents of his town who think he's bad news and would deserve to be in jail. Written by Andy Ward


Dopo i terribili eventi della prima stagione, continua il viaggio all'inferno di Kyle. Oltre la sua salvezza e quella dei suoi cari, questa volta il giovane dovrà affrontare i suoi demoni personali per riuscire a salvare l'intera comunità di Rome.


I poteri paranormali e gli eventi di possessione demoniaca di cui Kyle è vittima, diventano mano a mano ancora più pericolosi. Il ragazzo farà la conoscenza con un nuovo arrivo in città scoprendo ben presto che, quello che credeva essere un membro rispettabile della società, è in realtà, il braccio destro delle forze del Male.


Il Reverendo Anderson sarà costretto a convivere con i sensi di colpa causati dalle sue azioni passate ma l'aiuto del capitano Giles si rivelerà fondamentale per la sua sopravvivenza.


E se Megan dovrà riuscire a proteggere da sola la piccola Holly, Allison farà nuovamente ritorno a casa.



.: Screenshot :.


SCREENSHOT SCREENSHOT SCREENSHOT


.: Caratteristiche Tecniche :.



[spoiler]

Outcast.2x01.Indietro.Non.Si.Torna.ITA.ENG.720p.WEBMux.x264-Morpheus.mkv

Format                                   : Matroska

Format version                           : Version 4 / Version 2

File size                                : 1.64 GiB

Duration                                 : 45mn 28s

Overall bit rate                         : 5 150 Kbps

Encoded date                             : UTC 2017-04-10 22:21:25

Writing application                      : mkvmerge v7.6.0 ('Garden of Dreams') 64bit built on Feb  8 2015 15:12:28

Writing library                          : libebml v1.3.1 + libmatroska v1.4.2

DURATION                                 : 00:45:28.704000000

NUMBER_OF_FRAMES                         : 85272

NUMBER_OF_BYTES                          : 65488896

_STATISTICS_WRITING_APP                  : mkvmerge v7.6.0 ('Garden of Dreams') 64bit built on Feb  8 2015 15:12:28

_STATISTICS_WRITING_DATE_UTC             : 2017-04-10 22:21:25

_STATISTICS_TAGS                         : BPS DURATION NUMBER_OF_FRAMES NUMBER_OF_BYTES


Video

ID                                       : 1

Format                                   : AVC

Format/Info                              : Advanced Video Codec

Format profile                           : [email protected]/* */

Format settings, CABAC                   : Yes

Format settings, ReFrames                : 9 frames

Codec ID                                 : V_MPEG4/ISO/AVC

Duration                                 : 45mn 28s

Bit rate                                 : 4 472 Kbps

Width                                    : 1 280 pixels

Height                                   : 720 pixels

Display aspect ratio                     : 16:9

Frame rate                               : 25.000 fps

Original frame rate                      : 23.976 fps

Color space                              : YUV

Chroma subsampling                       : 4:2:0

Bit depth                                : 8 bits

Scan type                                : Progressive

Bits/(Pixel*Frame)                       : 0.194

Stream size                              : 1.42 GiB (87%)

Writing library                          : x264 core 148 r2762+10 5d7902f / tmod 5d7902f X86_64

Encoding settings                        : cabac=1 / ref=9 / deblock=1:-3:-3 / analyse=0x3:0x113 / me=umh / subme=10 / psy=1 / fade_compensate=0.00 / psy_rd=1.05:0.15 / mixed_ref=1 / me_range=48 / chroma_me=1 / trellis=2 / 8x8dct=1 / cqm=0 / deadzone=6,6 / fast_pskip=0 / chroma_qp_offset=-3 / threads=22 / lookahead_threads=3 / sliced_threads=0 / nr=0 / decimate=0 / interlaced=0 / bluray_compat=0 / constrained_intra=0 / fgo=0 / bframes=9 / b_pyramid=2 / b_adapt=2 / b_bias=0 / direct=3 / weightb=1 / open_gop=0 / weightp=2 / keyint=250 / keyint_min=23 / scenecut=40 / intra_refresh=0 / rc=crf / mbtree=0 / crf=18.0000 / qcomp=0.70 / qpmin=0:0:0 / qpmax=69:69:69 / qpstep=4 / ip_ratio=1.10 / pb_ratio=1.10 / aq=3:0.80 / aq-sensitivity=10.00 / aq-factor=1.00:1.00:1.00 / aq2=0 / aq3=0

Language                                 : English

Default                                  : Yes

Forced                                   : No

DURATION                                 : 00:45:28.600000000

NUMBER_OF_FRAMES                         : 68215

NUMBER_OF_BYTES                          : 1559314153

_STATISTICS_WRITING_APP                  : mkvmerge v7.6.0 ('Garden of Dreams') 64bit built on Feb  8 2015 15:12:28

_STATISTICS_WRITING_DATE_UTC             : 2017-04-10 22:21:25

_STATISTICS_TAGS                         : BPS DURATION NUMBER_OF_FRAMES NUMBER_OF_BYTES


Audio #1

ID                                       : 2

Format                                   : AC-3

Format/Info                              : Audio Coding 3

Mode extension                           : CM (complete main)

Codec ID                                 : A_AC3

Duration                                 : 45mn 28s

Bit rate mode                            : Constant

Bit rate                                 : 192 Kbps

Channel(s)                               : 2 channels

Channel positions                        : Front: L R

Sampling rate                            : 48.0 KHz

Bit depth                                : 16 bits

Compression mode                         : Lossy

Stream size                              : 62.5 MiB (4%)

Title                                    : ITA

Language                                 : Italian

Default                                  : Yes

Forced                                   : Yes


Audio #2

ID                                       : 3

Format                                   : AC-3

Format/Info                              : Audio Coding 3

Mode extension                           : CM (complete main)

Codec ID                                 : A_AC3

Duration                                 : 45mn 28s

Bit rate mode                            : Constant

Bit rate                                 : 384 Kbps

Channel(s)                               : 6 channels

Channel positions                        : Front: L C R, Side: L R, LFE

Sampling rate                            : 48.0 KHz

Bit depth                                : 16 bits

Compression mode                         : Lossy

Stream size                              : 125 MiB (7%)

Title                                    : ENG

Language                                 : English

Default                                  : No

Forced                                   : No


Text #1

ID                                       : 4

Format                                   : UTF-8

Codec ID                                 : S_TEXT/UTF8

Codec ID/Info                            : UTF-8 Plain Text

Title                                    : ITA - Forced

Language                                 : Italian

Default                                  : Yes

Forced                                   : Yes


Text #2

ID                                       : 5

Format                                   : UTF-8

Codec ID                                 : S_TEXT/UTF8

Codec ID/Info                            : UTF-8 Plain Text

Language                                 : Italian

Default                                  : No

Forced                                   : No


Text #3

ID                                       : 6

Format                                   : UTF-8

Codec ID                                 : S_TEXT/UTF8

Codec ID/Info                            : UTF-8 Plain Text

Language                                 : English

Default                                  : No

Forced                                   : No


Text #4

ID                                       : 7

Format                                   : UTF-8

Codec ID                                 : S_TEXT/UTF8

Codec ID/Info                            : UTF-8 Plain Text

Title                                    : English (SDH)

Language                                 : English

Default                                  : No

Forced                                   : No



[/spoiler]



.: Ringraziamenti :.



SCREENSHOT


RESTATE IN SEED ALTRIMENTI


SCREENSHOT



Torrent location

http://www.1337x.to/torrent/2171979/Outcast-S02e02-Mux-720p-H264-Ita-Eng-Ac3-Sub-Ita-Eng-WEBMux/

Trackers

Refresh Leechers : Updated April 21, 2017

1. http://explodie.org:6969/announce

2. http://tracker.tfile.me/announce

3. http://bigfoot1942.sektori.org:6969/announce

4. udp://eddie4.nl:6969/announce

5. udp://tracker4.piratux.com:6969/announce

6. udp://tracker.trackerfix.com:80/announce

7. udp://tracker.pomf.se:80/announce

8. udp://torrent.gresille.org:80/announce

9. udp://9.rarbg.me:2710/announce

10. udp://tracker.leechers-paradise.org:6969/announce

11. udp://glotorrents.pw:6969/announce

12. udp://tracker.opentrackr.org:1337/announce

13. udp://tracker.blackunicorn.xyz:6969/announce

14. udp://tracker.internetwarriors.net:1337/announce

15. udp://p4p.arenabg.ch:1337/announce

16. udp://tracker.coppersurfer.tk:6969/announce

17. udp://9.rarbg.to:2710/announce

18. udp://tracker.openbittorrent.com:80/announce

19. udp://glotorrents.pw:6969/announce

20. udp://tracker.tntvillage.scambioetico.org:2710/announce

21. http://tracker.tntvillage.scambioetico.org:2710/announce

22. udp://explodie.org:6969/announce

23. http://tracker.tfile.me/announce

24. udp://tracker.leechers-paradise.org:6969/announce

25. http://mgtracker.org:2710/announce

26. udp://torrent.gresille.org:80/announce

27. udp://9.rarbg.me:2710/announce

28. udp://tracker.opentrackr.org:1337/announce

Comments

You must log in to add a comment.

Embed Code

Sharing Widget

Top Series ( auto generated report )

FILENAME SIZE SEEDS PEERS ADDED UPD
[i] The.Blacklist.S04E17.WEB-DL.x264-FUM[ettv] 295.4 MB 4171 1196 4 days 3 days
[i] The.Blacklist.S04E16.WEB-DL.x264-FUM[ettv] 296.5 MB 3814 884 4 days 3 days
[i] Supergirl.S02E18.HDTV.x264-SVA[eztv].mkv 279.04 MB 3161 2931 13 hours 11 hours
[i] Doctor.Who.2005.S10E02.720p.HDTV.x264-FoV[ettv] 956.5 MB 2712 678 2 days 1 day
[i] Elementary.S05E20.HDTV.x264-KILLERS[ettv] 228.5 MB 2647 421 1 day 16 hours
[i] Silicon.Valley.S04E01.HDTV.x264-FUM[ettv] 166.5 MB 2460 427 1 day 10 hours
[i] Last.Week.Tonight.With.John.Oliver.S04E10.HDTV.x264-UAV[ettv] 198.5 MB 2132 270 1 day 12 hours
[i] Gotham.S03E15.REPACK.HDTV.x264-KILLERS[ettv] 244.5 MB 2096 1948 14 hours 12 hours
[i] Training.Day.S01E09.WEB-DL.x264-FUM[ettv] 326.5 MB 1556 472 2 days 1 day
[i] Doctor.Who.2005.S10E02.HDTV.x264-MTB[ettv] 324.33 MB 1544 231 2 days 1 day