Atari: Game Over (2014) | Misfits - Season 3 | Magazine4431 +68

Mr.Murder.1998.Part.2.iNTERNAL.DVDRip.x264-REGRET[PRiME]

DOWNLOAD TORRENT

Posted on April 21, 2017 in Movies » Misc , verified torrent

Size: 1003.15 MB , Seeds: 12 , Peers: 3 ( Updated April 21, 2017 - Refresh )

* Download via Magnet Link * To download files you need a Bittorrent Client ,

Scrape History ( seeds + peers )

Internal Files

Mr.Murder.1998.Part.2.iNTERNAL.DVDRip.x264-REGRET[PRiME]
Please Support!! Read More!!!.txt   334 Byte
Torrent Downloaded From 1337x.to.txt   69 Byte
Torrent Downloaded From peertorrent.com.txt   446 Byte
mr.murder.1998.part.2.internal.dvdrip.x264-regret[PRiME].mkv   1002.51 MB

Hash Code

d0ca4ee5a646ab6e5ce28020df1158dbf6f09a34

Description


Mr.Murder.1998.Part.2.iNTERNAL.DVDRip.x264-REGRET[PRiME]

ImDb: http://www.imdb.com/title/tt0140751

SCREENSHOT

Complete name : mr.murder.1998.part.2.internal.dvdrip.x264-regret[PRiME].mkv
Format : Matroska
Format version : Version 4 / Version 2
File size : 1 003 MiB
Duration : 1 h 29 min
Overall bit rate : 1 568 kb/s
Encoded date : UTC 2017-03-29 01:33:06
Writing application : mkvmerge v9.7.1 ('Pandemonium') 64bit
Writing library : libebml v1.3.4 + libmatroska v1.4.5

Video
ID : 1
Format : AVC
Format/Info : Advanced Video Codec
Format profile : [email protected]/* */
Format settings, CABAC : Yes
Format settings, ReFrames : 5 frames
Codec ID : V_MPEG4/ISO/AVC
Duration : 1 h 29 min
Bit rate : 1 422 kb/s
Width : 636 pixels
Height : 480 pixels
Display aspect ratio : 4:3
Frame rate mode : Constant
Frame rate : 23.976 (24000/1001) FPS
Color space : YUV
Chroma subsampling : 4:2:0
Bit depth : 8 bits
Scan type : Progressive
Bits/(Pixel*Frame) : 0.194
Stream size : 909 MiB (91%)
Writing library : x264 core 148 r2762 90a61ec
Encoding settings : cabac=1 / ref=5 / deblock=1:0:0 / analyse=0x3:0x113 / me=hex / subme=8 / psy=1 / psy_rd=1.00:0.00 / mixed_ref=1 / me_range=16 / chroma_me=1 / trellis=2 / 8x8dct=1 / cqm=0 / deadzone=21,11 / fast_pskip=1 / chroma_qp_offset=-2 / threads=12 / lookahead_threads=2 / sliced_threads=0 / nr=0 / decimate=1 / interlaced=0 / bluray_compat=0 / constrained_intra=0 / bframes=3 / b_pyramid=2 / b_adapt=1 / b_bias=0 / direct=3 / weightb=1 / open_gop=0 / weightp=2 / keyint=250 / keyint_min=23 / scenecut=40 / intra_refresh=0 / rc_lookahead=50 / rc=crf / mbtree=1 / crf=19.0 / qcomp=0.60 / qpmin=0 / qpmax=69 / qpstep=4 / ip_ratio=1.40 / aq=1:1.00
Default : Yes
Forced : No

Audio
ID : 2
Format : AAC
Format/Info : Advanced Audio Codec
Format profile : LC
Codec ID : A_AAC
Duration : 1 h 29 min
Bit rate : 144 kb/s
Channel(s) : 2 channels
Channel positions : Front: L R
Sampling rate : 48.0 kHz
Frame rate : 46.875 FPS (1024 spf)
Compression mode : Lossy
Delay relative to video : 20 ms
Stream size : 92.0 MiB (9%)
Language : English
Default : Yes
Forced : No

SCREENSHOT

Click Image To View Full Size

SCREENSHOT
Click To View Screenshot
Click To View Screenshot
Click To View Screenshot

Torrent location

http://www.1337x.to/torrent/2171970/Mr-Murder-1998-Part-2-iNTERNAL-DVDRip-x264-REGRET-PRiME/

Trackers

Refresh Leechers : Updated April 21, 2017

1. http://explodie.org:6969/announce

2. http://tracker.tfile.me/announce

3. http://bigfoot1942.sektori.org:6969/announce

4. udp://eddie4.nl:6969/announce

5. udp://tracker4.piratux.com:6969/announce

6. udp://tracker.trackerfix.com:80/announce

7. udp://tracker.pomf.se:80/announce

8. udp://torrent.gresille.org:80/announce

9. udp://9.rarbg.me:2710/announce

10. udp://tracker.leechers-paradise.org:6969/announce

11. udp://glotorrents.pw:6969/announce

12. udp://tracker.opentrackr.org:1337/announce

13. udp://tracker.blackunicorn.xyz:6969/announce

14. udp://tracker.internetwarriors.net:1337/announce

15. udp://p4p.arenabg.ch:1337/announce

16. udp://tracker.coppersurfer.tk:6969/announce

17. udp://9.rarbg.to:2710/announce

18. udp://tracker.openbittorrent.com:80/announce

19. udp://glotorrents.pw:6969/announce

20. udp://eddie4.nl:6969/announce

21. udp://explodie.org:6969/announce

22. udp://9.rarbg.me:2710/announce

23. udp://9.rarbg.to:2710/announce

24. udp://9.rarbg.com:2710/announce

25. udp://p4p.arenabg.com:1337/announce

26. udp://p4p.arenabg.ch:1337/announce

27. udp://ipv4.tracker.harry.lu:80/announce

28. udp://tracker.zer0day.to:1337/announce

29. udp://tracker.opentrackr.org:1337/announce

30. udp://tracker.leechers-paradise.org:6969/announce

31. udp://tracker.coppersurfer.tk:6969/announce

32. udp://tracker.ilibr.org:80/announce

33. udp://tracker.ilibr.org:6969/announce

Comments

You must log in to add a comment.

Embed Code

Sharing Widget

Related torrents

FILENAME SIZE SEEDS PEERS ADDED UPD
[i] Mr.Murder.1998.Part.1.iNTERNAL.DVDRip.x264-REGRET[PRiME] 992.65 MB 12 3 2 days 1 day
[i] Mr.Murder.1998.Part.2.iNTERNAL.DVDRip.x264-REGRET 1013.57 MB 6 6 2 days 1 day

Top Movies ( auto generated report )

FILENAME SIZE SEEDS PEERS ADDED UPD
[i] Rings.2017.BRRip.XViD-ETRG 712.3 MB 5304 3488 3 days 2 days
[i] A Dog's Purpose (2017) [720p] [YTS AG] 734.31 MB 4012 2214 2 days 12 hours
[i] Get.Out.2017.720p.HC.HDRip.XviD.AC3-EVO[EtHD] 2.5 GB 3446 1856 2 days 1 day
[i] Gold (2016) [720p] [YTS AG] 881.47 MB 3391 1995 2 days 1 day
[i] Rings (2017) [720p] [YTS AG] 758.1 MB 3371 2294 2 days 1 day
[i] Gold (2016) [1080p] [YTS AG] 1.83 GB 3342 1727 2 days 1 day
[i] A Dog's Purpose (2017) [1080p] [YTS AG] 1.52 GB 3317 1615 2 days 12 hours
[i] Rings (2017) [1080p] [YTS AG] 1.56 GB 3072 1881 2 days 1 day
[i] Las inocentes (HDRip) 1.92 GB 1775 384 2 days 11 hours
[i] Get.Out.2017.1080p.HC.WEBRip.x264.AAC2.0-STUTTERSHIT 3.4 GB 2550 1230 2 days 11 hours