Iron man | science-fiction | Read More

Kirsty Wark - The Menopause and Me

DOWNLOAD TORRENT

Posted on April 21, 2017 in Series » Misc , verified torrent

Size: 1021.15 MB , Seeds: 3 , Peers: 0 ( Updated April 27, 2017 )

* Download via Magnet Link * To download files you need a Bittorrent Client ,

Scrape History ( seeds + peers )

Internal Files

Kirsty Wark - The Menopause and Me
Kirsty Wark - The Menopause and Me.mp4   1019.87 MB
Kirsty Wark - The Menopause and Me.jpg   803.78 KB
About this torrent.txt   2.13 KB
Kirsty Wark - The Menopause and Me.srt   80.72 KB
Torrent Downloaded From peertorrent.com.txt   0 Byte
Torrent Downloaded From Katcr.co - Kickasstorrents.txt   72 Byte

Hash Code

d4a0d999dce3af2ee76dedb336520de44b46ee90

Description

Kirsty Wark - The Menopause and Me



Kirsty Wark asks everything you always wanted to know about the menopause (but were too embarrassed to ask). In a quest for the truth, Kirsty cuts through the confusion and says the unsayable on this very personal odyssey. At the heart of the programme is frank and often funny testimony from famous and not-so-famous women, including Jennifer Saunders and Kaye Adams, while highly respected experts including the chair of the British Menopause Society give up-to-date advice.



Kirsty also investigates groundbreaking research at Edinburgh University - research which has the provocative potential to extend our fertility. Kirsty examines society's reluctance to take the subject seriously and talk about it, and comes to the conclusion that if, on average, women are living up to 30 years after the menopause, it's time to take care of ourselves.



(with soft subtitles)



First broadcast: 20 April 2017

Duration: 1 hour



SCREENSHOT



Media info:

General

Format : MPEG-4

Format profile : Base Media

Codec ID : isom (isom/iso2/avc1/mp41)

File size : 1 020 MiB

Duration : 59mn 4s

Overall bit rate mode : Variable

Overall bit rate : 2 414 Kbps

Writing application : Lavf57.25.100



Video

ID : 1

Format : AVC

Format/Info : Advanced Video Codec

Format profile : [email protected]/* */

Format settings, CABAC : Yes

Format settings, ReFrames : 2 frames

Codec ID : avc1

Codec ID/Info : Advanced Video Coding

Duration : 59mn 4s

Bit rate mode : Variable

Bit rate : 2 315 Kbps

Maximum bit rate : 3 500 Kbps

Width : 1 280 pixels

Height : 720 pixels

Display aspect ratio : 16:9

Frame rate mode : Constant

Frame rate : 25.000 fps

Color space : YUV

Chroma subsampling : 4:2:0

Bit depth : 8 bits

Scan type : Progressive

Bits/(Pixel*Frame) : 0.100

Stream size : 978 MiB (96%)

Encoded date : UTC 1904-01-01 00:00:00

Tagged date : UTC 1904-01-01 00:00:00



Audio

ID : 2

Format : AAC

Format/Info : Advanced Audio Codec

Format profile : LC

Codec ID : 40

Duration : 59mn 4s

Bit rate mode : Constant

Bit rate : 93.5 Kbps

Channel(s) : 2 channels

Channel positions : Front: L R

Sampling rate : 48.0 KHz

Frame rate : 46.875 fps (1024 spf)

Compression mode : Lossy

Stream size : 39.5 MiB (4%)

Torrent location

http://extra.to/torrent/5588855/Kirsty+Wark+-+The+Menopause+and+Me.html

Trackers

Refresh Leechers : Updated April 27, 2017

1. udp://tracker.coppersurfer.tk:6969/announce

Comments

You must log in to add a comment.

Embed Code

Sharing Widget

Related torrents

FILENAME SIZE SEEDS PEERS ADDED UPD
[i] Kirsty.Wark.The.Menopause.and.Me.2017.HDTV.x264-DEADPOOL 333.41 MB 4 3 6 days 4 hours

Top Series ( auto generated report )

FILENAME SIZE SEEDS PEERS ADDED UPD
[i] Prison.Break.S05E04.HDTV.x264-KILLERS[ettv] 344.5 MB 7298 1658 1 day 14 hours
[i] The.Flash.2014.S03E19.HDTV.x264-SVA[eztv].mkv 257.41 MB 6184 1546 1 day 14 hours
[i] Marvels.Agents.of.S.H.I.E.L.D.S04E19.HDTV.x264-KILLERS[ettv] 252.5 MB 5017 1234 1 day 16 hours
[i] Supergirl.S02E18.WEB-DL.x264-FUM[ettv] 288.5 MB 4204 1200 2 days 1 day
[i] Arrow.S05E19.HDTV.x264-SVA[eztv].mkv 273.41 MB 3827 3687 13 hours 11 hours
[i] Gotham.S03E15.REPACK.HDTV.x264-KILLERS[ettv] 244.5 MB 3436 414 2 days 11 hours
[i] The.Flash.2014.S03E19.WEB-DL.x264-FUM[ettv] 253.57 MB 8607 1997 1 day 9 hours
[i] Into.the.Badlands.S02E06.WEB-DL.x264-FUM[ettv] 294.5 MB 3366 657 3 days 2 days
[i] Prison.Break.S05E04.720p.HDTV.x264-KILLERS[ettv] 1.06 GB 3342 863 1 day 14 hours
[i] Supergirl.S02E18.HDTV.x264-SVA[eztv].mkv 279.04 MB 3252 752 2 days 1 day