Comédie dramatique | Elementary S05E20 720p HDTV x264-KILLERS[eztv] mkv | Xml Schema

Jane.the.Virgin.S03E14.720p.HDTV.x264-SVA[PRiME]

DOWNLOAD TORRENT

Posted on March 21, 2017 in Series » Misc , verified torrent

Size: 1.07 GB , Seeds: 11 , Peers: 6 ( Updated April 24, 2017 )

* Download via Magnet Link * To download files you need a Bittorrent Client ,

Scrape History ( seeds + peers )

Internal Files

Jane.the.Virgin.S03E14.720p.HDTV.x264-SVA[PRiME]
Jane.the.Virgin.S03E14.720p.HDTV.x264-SVA[PRiME].mkv   1.05 GB
Please Support!! Read More!!!.txt   232 Byte
Torrent Downloaded From 1337x.to.txt   69 Byte
Torrent Downloaded From peertorrent.com.txt   446 Byte

Hash Code

e9f3b5f0caab34b3fde0463d5d2bab4d26bbbf43

Description


Jane.the.Virgin.S03E14.720p.HDTV.x264-SVA[PRiME]

SCREENSHOT

Complete name : Jane.the.Virgin.S03E14.720p.HDTV.x264-SVA[PRiME].mkv
Format : Matroska
Format version : Version 4 / Version 2
File size : 1.05 GiB
Duration : 42 min 2 s
Overall bit rate : 3 572 kb/s
Encoded date : UTC 2017-03-21 01:10:12
Writing application : FastLE v3.0.0 - AVS
Writing library : libx264 + libebml + libmatroska + libfastrar

Video
ID : 1
Format : AVC
Format/Info : Advanced Video Codec
Format profile : [email protected]/* */
Format settings, CABAC : Yes
Format settings, ReFrames : 5 frames
Codec ID : V_MPEG4/ISO/AVC
Duration : 42 min 2 s
Bit rate : 3 117 kb/s
Width : 1 280 pixels
Height : 720 pixels
Display aspect ratio : 16:9
Frame rate mode : Constant
Frame rate : 23.976 (24000/1001) FPS
Color space : YUV
Chroma subsampling : 4:2:0
Bit depth : 8 bits
Scan type : Progressive
Bits/(Pixel*Frame) : 0.141
Stream size : 937 MiB (87%)
Writing library : x264 core 148 r2744 b97ae06
Encoding settings : cabac=1 / ref=5 / deblock=1:0:0 / analyse=0x3:0x113 / me=hex / subme=8 / psy=1 / psy_rd=1.00:0.00 / mixed_ref=1 / me_range=16 / chroma_me=1 / trellis=2 / 8x8dct=1 / cqm=0 / deadzone=21,11 / fast_pskip=1 / chroma_qp_offset=-2 / threads=22 / lookahead_threads=3 / sliced_threads=0 / nr=0 / decimate=1 / interlaced=0 / bluray_compat=0 / constrained_intra=0 / bframes=3 / b_pyramid=2 / b_adapt=1 / b_bias=0 / direct=3 / weightb=1 / open_gop=0 / weightp=2 / keyint=250 / keyint_min=23 / scenecut=40 / intra_refresh=0 / rc_lookahead=50 / rc=crf / mbtree=1 / crf=18.0 / qcomp=0.60 / qpmin=0 / qpmax=69 / qpstep=4 / ip_ratio=1.40 / aq=1:1.00
Default : Yes
Forced : No
Color range : Limited
Matrix coefficients : BT.709

Audio
ID : 2
Format : AC-3
Format/Info : Audio Coding 3
Mode extension : CM (complete main)
Format settings, Endianness : Big
Codec ID : A_AC3
Duration : 42 min 2 s
Bit rate mode : Constant
Bit rate : 384 kb/s
Channel(s) : 6 channels
Channel positions : Front: L C R, Side: L R, LFE
Sampling rate : 48.0 kHz
Frame rate : 31.250 FPS (1536 spf)
Compression mode : Lossy
Stream size : 115 MiB (11%)
Default : Yes
Forced : No

SCREENSHOT

Click Image To View Full Size

SCREENSHOT
Click To View Screenshot
Click To View Screenshot
Click To View Screenshot

Torrent location

http://www.1337x.to/torrent/2122203/Jane-the-Virgin-S03E14-720p-HDTV-x264-SVA-PRiME/

Trackers

Refresh Leechers : Updated April 24, 2017

1. http://explodie.org:6969/announce

2. http://tracker.tfile.me/announce

3. http://bigfoot1942.sektori.org:6969/announce

4. udp://eddie4.nl:6969/announce

5. udp://tracker4.piratux.com:6969/announce

6. udp://tracker.trackerfix.com:80/announce

7. udp://tracker.pomf.se:80/announce

8. udp://torrent.gresille.org:80/announce

9. udp://9.rarbg.me:2710/announce

10. udp://tracker.leechers-paradise.org:6969/announce

11. udp://glotorrents.pw:6969/announce

12. udp://tracker.opentrackr.org:1337/announce

13. udp://tracker.blackunicorn.xyz:6969/announce

14. udp://tracker.internetwarriors.net:1337/announce

15. udp://p4p.arenabg.ch:1337/announce

16. udp://tracker.coppersurfer.tk:6969/announce

17. udp://9.rarbg.to:2710/announce

18. udp://tracker.openbittorrent.com:80/announce

19. udp://glotorrents.pw:6969/announce

20. udp://eddie4.nl:6969/announce

21. udp://explodie.org:6969/announce

22. udp://9.rarbg.me:2710/announce

23. udp://9.rarbg.to:2710/announce

24. udp://9.rarbg.com:2710/announce

25. udp://p4p.arenabg.com:1337/announce

26. udp://p4p.arenabg.ch:1337/announce

27. udp://ipv4.tracker.harry.lu:80/announce

28. udp://tracker.zer0day.to:1337/announce

29. udp://tracker.opentrackr.org:1337/announce

30. udp://tracker.leechers-paradise.org:6969/announce

31. udp://tracker.coppersurfer.tk:6969/announce

32. udp://tracker.ilibr.org:80/announce

33. udp://tracker.ilibr.org:6969/announce

Comments

You must log in to add a comment.

Embed Code

Sharing Widget

Related torrents

FILENAME SIZE SEEDS PEERS ADDED UPD
[i] Jane.the.Virgin.S03E14.HDTV.x264-SVA[PRiME] 307.2 MB 46 5 1 month 8 hours
[i] Jane.the.Virgin.S03E14.720p.HEVC.x265-MeGusta 308.49 MB 2 0 1 month 9 hours
[i] Jane.the.Virgin.S03E14.1080p.WEB-DL.DD5.1.H.264-DRACULA 1.67 GB 2 11 1 month 2 weeks

Top Series ( auto generated report )

FILENAME SIZE SEEDS PEERS ADDED UPD
[i] The.Blacklist.S04E17.WEB-DL.x264-FUM[ettv] 295.4 MB 4171 1196 3 days 2 days
[i] The.Blacklist.S04E16.WEB-DL.x264-FUM[ettv] 296.5 MB 3814 884 3 days 2 days
[i] The.Blacklist.S04E16.HDTV.x264-SVA[eztv].mkv 263.79 MB 3392 596 3 days 2 days
[i] Fargo.S03E01.WEBRip.x264-FUM[ettv] 339.35 MB 2815 698 3 days 2 days
[i] Doctor.Who.2005.S10E02.720p.HDTV.x264-FoV[ettv] 956.5 MB 2712 678 1 day 16 hours
[i] The.Blacklist.S04E17.HDTV.x264-FLEET[eztv].mkv 260.04 MB 2292 350 3 days 2 days
[i] Scandal.US.S06E11.HDTV.x264-SVA[eztv].mkv 247.04 MB 2254 450 3 days 2 days
[i] The.Last.Kingdom.S02E06.HDTV.x264-MTB[ettv] 356.5 MB 2238 405 3 days 2 days
[i] Survivor.S34E07.HDTV.x264-CROOKS[ettv] 821.28 MB 1736 586 4 days 3 days
[i] Doctor.Who.2005.S10E02.HDTV.x264-MTB[ettv] 324.33 MB 1544 231 1 day 17 hours