IObit Uninstaller PRO v6.0.2.143 Multilingual + Crack {DTH} [Isohunt.to] | DigitalDesire.Madi.Meadows.XXX.1080p.-KTR.BTY.mp4 | Huge Dildo and a Pussy

Buffy.the.Vampire.Slayer.1992.720p.BluRay.x264-x0r[PRiME]

DOWNLOAD TORRENT

Posted on April 20, 2017 in Movies » Misc , verified torrent

Size: 1.94 GB , Seeds: 8 , Peers: 15 ( Updated April 21, 2017 - Refresh )

* Download via Magnet Link * To download files you need a Bittorrent Client ,

Scrape History ( seeds + peers )

Internal Files

Buffy.the.Vampire.Slayer.1992.720p.BluRay.x264-x0r[PRiME]
Buffy.the.Vampire.Slayer.1992.720p.BluRay.x264-x0r.fanart.jpg   112.27 KB
Buffy.the.Vampire.Slayer.1992.720p.BluRay.x264-x0r.jpg   205.46 KB
Buffy.the.Vampire.Slayer.1992.720p.BluRay.x264-x0r[PRiME].mkv   1.93 GB
Buffy.the.Vampire.Slayer.1992.720p.BluRay.x264-x0r[TRAILER-Theatrical Trailer][PRiME].mkv   10.11 MB
Please Support!! Read More!!!.txt   334 Byte
Torrent Downloaded From 1337x.to.txt   69 Byte
Torrent Downloaded From peertorrent.com.txt   446 Byte

Hash Code

1d80cc35c236b264056255b723c421b939f3b8f3

Description


Buffy.the.Vampire.Slayer.1992.720p.BluRay.x264-x0r[PRiME]

ImDb: http://www.imdb.com/title/tt0103893

SCREENSHOT

Complete name : Buffy.the.Vampire.Slayer.1992.720p.BluRay.x264-x0r[TRAILER-Theatrical Trailer][PRiME].mkv
Format : Matroska
Format version : Version 4 / Version 2
File size : 10.1 MiB
Duration : 1 min 4 s
Overall bit rate : 1 323 kb/s
Movie name : Buffy.the.Vampire.Slayer.1992.720p.BluRay.x264-x0r[TRAILER-Theatrical Trailer]
Encoded date : UTC 2017-04-15 13:08:58
Writing application : mkvmerge v7.7.0 ('Six Voices') 64bit built on Mar 1 2015 01:50:05
Writing library : libebml v1.3.1 + libmatroska v1.4.2

Video
ID : 1
Format : AVC
Format/Info : Advanced Video Codec
Format profile : [email protected]/* */
Format settings, CABAC : Yes
Format settings, ReFrames : 8 frames
Codec ID : V_MPEG4/ISO/AVC
Duration : 1 min 4 s
Bit rate : 1 100 kb/s
Width : 720 pixels
Height : 480 pixels
Display aspect ratio : 4:3
Frame rate mode : Constant
Frame rate : 29.970 (30000/1001) FPS
Standard : NTSC
Color space : YUV
Chroma subsampling : 4:2:0
Bit depth : 8 bits
Scan type : Progressive
Bits/(Pixel*Frame) : 0.106
Stream size : 8.37 MiB (83%)
Writing library : x264 core 142 r2389 956c8d8
Encoding settings : cabac=1 / ref=8 / deblock=1:-2:-2 / analyse=0x3:0x113 / me=umh / subme=9 / psy=1 / psy_rd=1.00:0.25 / mixed_ref=1 / me_range=48 / chroma_me=1 / trellis=1 / 8x8dct=1 / cqm=0 / deadzone=21,11 / fast_pskip=1 / chroma_qp_offset=-4 / threads=12 / lookahead_threads=1 / sliced_threads=0 / nr=0 / decimate=1 / interlaced=0 / bluray_compat=0 / constrained_intra=0 / bframes=4 / b_pyramid=2 / b_adapt=2 / b_bias=0 / direct=3 / weightb=1 / open_gop=0 / weightp=2 / keyint=300 / keyint_min=30 / scenecut=40 / intra_refresh=0 / rc_lookahead=40 / rc=2pass / mbtree=1 / bitrate=1100 / ratetol=1.0 / qcomp=0.60 / qpmin=0 / qpmax=69 / qpstep=4 / cplxblur=20.0 / qblur=0.5 / vbv_maxrate=20000 / vbv_bufsize=25000 / nal_hrd=none / filler=0 / ip_ratio=1.40 / aq=1:1.00
Language : English
Default : Yes
Forced : No
Color range : Limited
Color primaries : BT.601 NTSC
Transfer characteristics : BT.709
Matrix coefficients : BT.601

Audio
ID : 2
Format : AC-3
Format/Info : Audio Coding 3
Mode extension : CM (complete main)
Format settings, Endianness : Big
Codec ID : A_AC3
Duration : 1 min 4 s
Bit rate mode : Constant
Bit rate : 224 kb/s
Channel(s) : 2 channels
Channel positions : Front: L R
Sampling rate : 48.0 kHz
Frame rate : 31.250 FPS (1536 spf)
Compression mode : Lossy
Delay relative to video : 32 ms
Stream size : 1.71 MiB (17%)
Title : Stereo
Language : English
Default : Yes
Forced : No

Menu
00:00:00.000 : :Chapter 1
00:00:32.032 : :Chapter 2

SCREENSHOT

Click Image To View Full Size

SCREENSHOT
Click To View Screenshot
Click To View Screenshot
Click To View Screenshot

Torrent location

http://www.1337x.to/torrent/2171686/Buffy-the-Vampire-Slayer-1992-720p-BluRay-x264-x0r-PRiME/

Trackers

Refresh Leechers : Updated April 21, 2017

1. http://explodie.org:6969/announce

2. http://tracker.tfile.me/announce

3. http://bigfoot1942.sektori.org:6969/announce

4. udp://eddie4.nl:6969/announce

5. udp://tracker4.piratux.com:6969/announce

6. udp://tracker.trackerfix.com:80/announce

7. udp://tracker.pomf.se:80/announce

8. udp://torrent.gresille.org:80/announce

9. udp://9.rarbg.me:2710/announce

10. udp://tracker.leechers-paradise.org:6969/announce

11. udp://glotorrents.pw:6969/announce

12. udp://tracker.opentrackr.org:1337/announce

13. udp://tracker.blackunicorn.xyz:6969/announce

14. udp://tracker.internetwarriors.net:1337/announce

15. udp://p4p.arenabg.ch:1337/announce

16. udp://tracker.coppersurfer.tk:6969/announce

17. udp://9.rarbg.to:2710/announce

18. udp://tracker.openbittorrent.com:80/announce

19. udp://glotorrents.pw:6969/announce

20. udp://eddie4.nl:6969/announce

21. udp://explodie.org:6969/announce

22. udp://9.rarbg.me:2710/announce

23. udp://9.rarbg.to:2710/announce

24. udp://9.rarbg.com:2710/announce

25. udp://p4p.arenabg.com:1337/announce

26. udp://p4p.arenabg.ch:1337/announce

27. udp://ipv4.tracker.harry.lu:80/announce

28. udp://tracker.zer0day.to:1337/announce

29. udp://tracker.opentrackr.org:1337/announce

30. udp://tracker.leechers-paradise.org:6969/announce

31. udp://tracker.coppersurfer.tk:6969/announce

32. udp://tracker.ilibr.org:80/announce

33. udp://tracker.ilibr.org:6969/announce

Comments

You must log in to add a comment.

Embed Code

Sharing Widget

Related torrents

FILENAME SIZE SEEDS PEERS ADDED UPD
[i] Buffy The Vampire Slayer Complete Series Season 1,2,3,4,5,6,7 + Extras 45.35 GB 12 23 2 years 2 months
[i] Buffy the Vampire Slayer Season 10 022 (2015) (Digital) (Cypher 2.0-Empire).cbr 31.45 MB 10 0 1 year 10 months
[i] Buffy the Vampire Slayer Season 10 019 (2015) (Digital) (Cypher 2.0-Empire).cbr 19.57 MB 8 0 1 year 9 months
[i] Buffy the Vampire Slayer Season 10 018 (2015) (Digital) (Cypher 2.0-Empire).cbr 19.63 MB 8 0 1 year 1 year
[i] Buffy the Vampire Slayer Season 10 021 (2015) (Digital) (Cypher 2.0-Empire).cbr 31.01 MB 7 0 1 year 9 months
[i] Buffy The Vampire Slayer; Once More, With Feeling (Big Papi) Soundtrack 2002 103.91 MB 6 2 1 year 3 weeks
[i] Buffy the Vampire Slayer Season 10 016 (2015) (Digital) (Cypher 2.0-Empire).cbr 19.82 MB 6 0 1 year 9 months
[i] Buffy the Vampire Slayer 1992 720p BRRip XviD AC3 - KINGDOM 2.18 GB 5 5 2 years 1 year
[i] Buffy the Vampire Slayer Season 10 011 (2015) (Digital) (Cypher 2.0-Empire).cbr (- Nem -) 22.88 MB 4 0 2 years 1 year
[i] Buffy the Vampire Slayer Season 10 (v01- v02) (2014-2015) (digital) (The Magicians-Empire) (- Nem -) 497.15 MB 4 0 1 year 9 months

Top Movies ( auto generated report )

FILENAME SIZE SEEDS PEERS ADDED UPD
[i] Rings.2017.BRRip.XViD-ETRG 712.3 MB 5304 3488 3 days 2 days
[i] A Dog's Purpose (2017) [720p] [YTS AG] 734.31 MB 4012 2214 2 days 12 hours
[i] Get.Out.2017.720p.HC.HDRip.XviD.AC3-EVO[EtHD] 2.5 GB 3446 1856 2 days 1 day
[i] Gold (2016) [720p] [YTS AG] 881.47 MB 3391 1995 2 days 1 day
[i] Rings (2017) [720p] [YTS AG] 758.1 MB 3371 2294 2 days 1 day
[i] Gold (2016) [1080p] [YTS AG] 1.83 GB 3342 1727 2 days 1 day
[i] A Dog's Purpose (2017) [1080p] [YTS AG] 1.52 GB 3317 1615 2 days 12 hours
[i] Rings (2017) [1080p] [YTS AG] 1.56 GB 3072 1881 2 days 1 day
[i] Las inocentes (HDRip) 1.92 GB 1775 384 2 days 11 hours
[i] Get.Out.2017.1080p.HC.WEBRip.x264.AAC2.0-STUTTERSHIT 3.4 GB 2550 1230 2 days 11 hours