Download MP3 | Dam Sharks (2016) online | Some Like It Hot (2016)

Bridge of Spies 2015 720p BluRay H264 AAC-RARBG

DOWNLOAD TORRENT

Posted on January 18, 2016 in Movies » Thriller , verified torrent

Size: 1.71 GB , Seeds: 91 , Peers: 15 ( Updated July 5, 2016 - Refresh )

* Download via Magnet Link * To download files you need a Bittorrent Client ,

Scrape History ( seeds + peers )

Internal Files

Bridge.of.Spies.2015.720p.BluRay.H264.AAC-RARBG
Bridge.of.Spies.2015.720p.BluRay.H264.AAC-RARBG.mp4   1.71 GB
Bridge.of.Spies.2015.720p.BluRay.H264.AAC-RARBG.nfo   3.97 KB
RARBG.COM.mp4   992.93 KB
RARBG.COM.txt   34 Byte
English.srt   128.79 KB

Hash Code

908e364cca7c119b56e5efce3d4b1e425e733c11

Description



http://rarbg.to

Bridge.of.Spies.2015.720p.BluRay.H264.AAC-RARBG



SCREENSHOT

Screens :



SCREENSHOT



SCREENSHOT



SCREENSHOT



SCREENSHOT



SCREENSHOT

Mediainfo :



Video

ID : 1

Format : AVC

Format/Info : Advanced Video Codec

Format profile : [email protected]

Format settings, CABAC : Yes

Format settings, ReFrames : 4 frames

Codec ID : avc1

Codec ID/Info : Advanced Video Coding

Duration : 2h 21mn

Bit rate : 1 500 Kbps

Width : 1 280 pixels

Height : 536 pixels

Display aspect ratio : 2.40:1

Frame rate mode : Constant

Frame rate : 23.976 (23976/1000) fps

Color space : YUV

Chroma subsampling : 4:2:0

Bit depth : 8 bits

Scan type : Progressive

Bits/(Pixel*Frame) : 0.091

Stream size : 1.48 GiB (87%)

Writing library : x264 core 148 r2597M e86f3a1

Encoding settings : cabac=1 / ref=4 / deblock=1:-1:-1 / analyse=0x3:0x113 / me=umh / subme=9 / psy=1 / psy_rd=1.00:0.15 / mixed_ref=1 / me_range=24 / chroma_me=1 / trellis=2 / 8x8dct=1 / cqm=0 / deadzone=21,11 / fast_pskip=1 / chroma_qp_offset=-3 / threads=32 / lookahead_threads=4 / sliced_threads=0 / nr=0 / decimate=1 / interlaced=0 / bluray_compat=0 / constrained_intra=0 / bframes=3 / b_pyramid=2 / b_adapt=2 / b_bias=0 / direct=3 / weightb=1 / open_gop=0 / weightp=2 / keyint=250 / keyint_min=25 / scenecut=40 / intra_refresh=0 / rc_lookahead=50 / rc=2pass / mbtree=1 / bitrate=1500 / ratetol=1.0 / qcomp=0.60 / qpmin=0 / qpmax=69 / qpstep=4 / cplxblur=20.0 / qblur=0.5 / vbv_maxrate=31250 / vbv_bufsize=31250 / nal_hrd=none / filler=0 / ip_ratio=1.40 / aq=3:1.00

Encoded date : UTC 2016-01-16 21:45:10

Tagged date : UTC 2016-01-16 21:45:10



Audio

ID : 2

Format : AAC

Format/Info : Advanced Audio Codec

Format profile : LC

Codec ID : 40

Duration : 2h 21mn

Bit rate mode : Constant

Bit rate : 224 Kbps

Channel(s) : 2 channels

Channel(s)_Original : 6 channels

Channel positions : Front: L C R, Side: L R, LFE

Sampling rate : 48.0 KHz

Frame rate : 46.875 fps (1024 spf)

Compression mode : Lossy

Stream size : 226 MiB (13%)

Language : English

Default : Yes

Alternate group : 1

Encoded date : UTC 2016-01-16 21:45:10

Tagged date : UTC 2016-01-16 21:45:10






Torrent location

http://kat.cr/bridge-of-spies-2015-720p-bluray-h264-aac-rarbg-t11916362.html

Trackers

Refresh Leechers : Updated July 5, 2016

1. udp://tracker.coppersurfer.tk:6969/announce

2. udp://tracker.openbittorrent.com:80/announce

3. udp://glotorrents.pw:6969/announce

4. udp://tracker.publicbt.com:80/announce

5. udp://9.rarbg.to:2710/announce

6. udp://9.rarbg.me:2710/announce

7. udp://tracker.opentrackr.org:1337/announce

8. http://tracker.trackerfix.com/announce

Comments

You must log in to add a comment.

Embed Code

Sharing Widget

Related torrents

FILENAME SIZE SEEDS PEERS ADDED UPD
[i] Bridge.of.Spies.2015.720p.BRRip.x264.AAC-ETRG 1.04 GB 1518 77 1 year 9 months
[i]
[i]
Bridge of Spies 2015 REPACK TRUEFRENCH DVDSCR MD XViD-ZT avi
Movies - Drama , Quality: Audio 8/10 - Video 8/10
1.37 GB 916 6 1 year 10 months
[i]
[i]
Bridge of Spies 2015 1080p BluRay x264 DTS-JYK
Movies - Thriller , Quality: Audio 9/10 - Video 9/10
3.56 GB 460 28 1 year 9 months
[i]
[i]
Bridge.of.Spies.2015.DVDRip.XviD.AC3-EVO
Movies - Thriller , Quality: Audio 9/10 - Video 9/10
1.58 GB 249 67 1 year 9 months
[i] Bridge of Spies 2015 HDRip XviD AC3-EVO 1.52 GB 155 6 1 year 10 months
[i]
[i]
Bridge of Spies 2015 1080p BluRay x264-SPARKS[rarbg]
Movies - Thriller , Quality: Audio 9/10 - Video 9/10
10.93 GB 125 29 1 year 9 months
[i] Bridge of Spies 2015 BRRip XviD-ETRG 711.3 MB 117 50 1 year 9 months
[i] Bridge.of.Spies.2015.1080p.BRRip.x264.AAC-ETRG 2.08 GB 96 13 1 year 9 months
[i] Bridge of Spies 2015 D CAMRip 2100MB RUS [CPUL] 2.06 GB 84 6 1 year 10 months
[i] Bridge Of Spies - Il ponte delle spie (2015).BRrip.XviD - Italian English.Ac3.5.1.Multisub.MIRCrew - ICV
posted by robbyrs in Movies - Drama
2.29 GB 78 35 1 year 8 months

Top Movies ( auto generated report )

FILENAME SIZE SEEDS PEERS ADDED UPD
[i] Mine (HDRip) 1.78 GB 4629 2039 1 day 14 hours
[i] Fifty.Shades.Darker.2017.UNRATED.1080p.WEB-DL.DD5.1.H264-FGT 4.54 GB 2256 1247 1 day 11 hours
[i] Comanchería (HDRip) 1.72 GB 1694 136 2 days 1 day
[i] The.Legend.of.Ben.Hall.2016.BRRip.XViD.AC3-ETRG.torrent 1.39 GB 1665 821 2 days 3 hours
[i] Wolves.At.the.Door.2016.HDRip.XViD-ETRG 713.3 MB 1166 1000 2 days 1 day
[i] De-mentes criminales (HDRip) 1.69 GB 1148 367 12 hours 10 hours
[i] Kong.Skull.Island.2017 HDRip 1080p Ita Eng x265-NAHOM.torrent 1.98 GB 1060 626 3 days 1 day
[i] Cyborg.X.2016.BRRip.XViD-ETRG.torrent 706.3 MB 806 339 3 days 18 hours
[i] N.O.L.A.Circus.2016.HDRip.XViD-ETRG 708.3 MB 803 622 1 day 21 hours
[i] Janaan (2016) TVRIP 1CDRIP x264 AAC 2.0 [DDR] 710.3 MB 776 1234 2 days 1 day