Read more | Windows Server 2016 Security Hardening | AVEVA Bocad Suite 2.2.0.3

Beverly.Hills.Cop.1984.720p.BluRay.x264-x0r[PRiME]

DOWNLOAD TORRENT

Posted on April 20, 2017 in Movies » Action , verified torrent

Size: 2.21 GB , Seeds: 10 , Peers: 10 ( Updated April 21, 2017 - Refresh )

* Download via Magnet Link * To download files you need a Bittorrent Client ,

Scrape History ( seeds + peers )

Internal Files

Beverly.Hills.Cop.1984.720p.BluRay.x264-x0r[PRiME]
Beverly.Hills.Cop.1984.720p.BluRay.x264-x0r.fanart.jpg   226.07 KB
Beverly.Hills.Cop.1984.720p.BluRay.x264-x0r.jpg   197.76 KB
Beverly.Hills.Cop.1984.720p.BluRay.x264-x0r[PRiME].mkv   2.21 GB
Please Support!! Read More!!!.txt   334 Byte
Torrent Downloaded From 1337x.to.txt   69 Byte
Torrent Downloaded From peertorrent.com.txt   446 Byte

Hash Code

fdcb9f5c77bf1982631302a61ec7912db4ebee93

Description

Beverly.Hills.Cop.1984.720p.BluRay.x264-x0r[PRiME]



ImDb: http://www.imdb.com/title/tt0086960



SCREENSHOT



Complete name : Beverly.Hills.Cop.1984.720p.BluRay.x264-x0r[PRiME].mkv

Format : Matroska

Format version : Version 4 / Version 2

File size : 2.21 GiB

Duration : 1 h 45 min

Overall bit rate : 3 009 kb/s

Movie name : Beverly.Hills.Cop.1984.720p.BluRay.x264-x0r

Encoded date : UTC 2017-04-13 11:39:27

Writing application : mkvmerge v7.7.0 (\'Six Voices\') 64bit built on Mar 1 2015 01:50:05

Writing library : libebml v1.3.1 + libmatroska v1.4.2



Video

ID : 1

Format : AVC

Format/Info : Advanced Video Codec

Format profile : [email protected]/* */

Format settings, CABAC : Yes

Format settings, ReFrames : 8 frames

Codec ID : V_MPEG4/ISO/AVC

Duration : 1 h 45 min

Bit rate : 2 560 kb/s

Width : 1 280 pixels

Height : 720 pixels

Display aspect ratio : 16:9

Frame rate mode : Constant

Frame rate : 23.976 FPS

Color space : YUV

Chroma subsampling : 4:2:0

Bit depth : 8 bits

Scan type : Progressive

Bits/(Pixel*Frame) : 0.116

Stream size : 1.88 GiB (85%)

Writing library : x264 core 142 r2389 956c8d8

Encoding settings : cabac=1 / ref=8 / deblock=1:-2:-2 / analyse=0x3:0x133 / me=umh / subme=10 / psy=1 / psy_rd=1.00:0.25 / mixed_ref=0 / me_range=64 / chroma_me=1 / trellis=2 / 8x8dct=1 / cqm=0 / deadzone=6,6 / fast_pskip=0 / chroma_qp_offset=-4 / threads=12 / lookahead_threads=1 / sliced_threads=0 / nr=0 / decimate=0 / interlaced=0 / bluray_compat=0 / constrained_intra=0 / bframes=4 / b_pyramid=2 / b_adapt=2 / b_bias=0 / direct=3 / weightb=1 / open_gop=0 / weightp=2 / keyint=240 / keyint_min=24 / scenecut=40 / intra_refresh=0 / rc_lookahead=120 / rc=2pass / mbtree=1 / bitrate=2560 / ratetol=1.0 / qcomp=0.80 / qpmin=0 / qpmax=69 / qpstep=4 / cplxblur=20.0 / qblur=0.5 / vbv_maxrate=20000 / vbv_bufsize=25000 / nal_hrd=none / filler=0 / ip_ratio=1.10 / aq=1:0.50

Language : English

Default : Yes

Forced : No

Color range : Limited

Color primaries : BT.709

Transfer characteristics : BT.709

Matrix coefficients : BT.709



Audio

ID : 2

Format : AC-3

Format/Info : Audio Coding 3

Mode extension : CM (complete main)

Format settings, Endianness : Big

Codec ID : A_AC3

Duration : 1 h 45 min

Bit rate mode : Constant

Bit rate : 448 kb/s

Channel(s) : 6 channels

Channel positions : Front: L C R, Side: L R, LFE

Sampling rate : 48.0 kHz

Frame rate : 31.250 FPS (1536 spf)

Compression mode : Lossy

Delay relative to video : -5 ms

Stream size : 337 MiB (15%)

Title : Surround

Language : English

Default : Yes

Forced : No



Text

ID : 3

Format : UTF-8

Codec ID : S_TEXT/UTF8

Codec ID/Info : UTF-8 Plain Text

Duration : 1 h 40 min

Bit rate : 75 b/s

Count of elements : 1408

Stream size : 55.3 KiB (0%)

Language : English

Default : Yes

Forced : No



Menu

00:00:00.000 : :Chapter 1

00:10:57.883 : :Chapter 2

00:19:31.771 : :Chapter 3

00:36:03.679 : :Chapter 4

00:45:06.346 : :Chapter 5

00:49:28.941 : :Chapter 6

00:58:39.700 : :Chapter 7

01:13:16.200 : :Chapter 8

01:23:22.765 : :Chapter 9

01:38:28.294 : :Chapter 10

01:41:04.534 : :Chapter 11




SCREENSHOT



Click Image To View Full Size



SCREENSHOT

Click To View Screenshot

Click To View Screenshot

Click To View Screenshot

Torrent location

http://extra.to/torrent/5587054/Beverly.Hills.Cop.1984.720p.BluRay.x264-x0r%5BPRiME%5D.html

Trackers

Refresh Leechers : Updated April 21, 2017

1. udp://tracker.ilibr.org:6969/announce

2. udp://tracker.coppersurfer.tk:6969

3. udp://tracker.ilibr.org:80/announce

4. udp://tracker.coppersurfer.tk:6969/announce

5. udp://tracker.leechers-paradise.org:6969/announce

6. udp://tracker.opentrackr.org:1337/announce

7. udp://tracker.zer0day.to:1337/announce

8. udp://ipv4.tracker.harry.lu:80/announce

9. udp://p4p.arenabg.ch:1337/announce

10. udp://p4p.arenabg.com:1337/announce

11. udp://9.rarbg.com:2710/announce

12. udp://9.rarbg.to:2710/announce

13. udp://9.rarbg.me:2710/announce

14. udp://explodie.org:6969/announce

15. udp://eddie4.nl:6969/announce

Comments

You must log in to add a comment.

Embed Code

Sharing Widget

Related torrents

FILENAME SIZE SEEDS PEERS ADDED UPD
[i] Beverly Hills Cop (1984) 720p BRrip X264 - 750MB - YIFY 752.3 MB 48 5 4 years 1 year
[i] Beverly Hills Cop (1984) 1080p BRrip X264 - 1.50GB - YIFY 1.51 GB 15 7 4 years 1 year
[i] Beverly Hills Cop 1-2-3 Triliogy DVD Boxset (1984-1987-1994) (Full DVDRip - H264 - AAC) {CTShoN} [CTRC]
posted by Shon1 in Movies - Action
3.83 GB 5 4 1 year 2 weeks
[i] Beverly Hills Cop (BDip 1080 ENG-ITA) MultiSub x264 BluRay (1984
posted by ShivaShanti in Movies - Action
4.41 GB 4 6 5 years 1 year
[i] Le Flic de Beverly-Hills 1984 FRENCH DVDRip XviD AC3-HuSh 1.4 GB 1 1 4 years 1 year
[i] Beverly Hills Cop 1984 720p Blu-ray Dual Audio Hindi English GOPI SAHI 464.15 MB 1 1 2 years 1 year
[i] Beverly.Hills.Cop.1984.1080p.BluRay.X264-AMIABLE [PublicHD] 7.66 GB 0 1 4 years 1 year
[i] Beverly Hills Cop 1984 BluRay DTS 1080p dxva-LoNeWolf [bobnjeff][h33t] 12.98 GB 0 3 5 years 1 year
[i] Beverly Hills Cop 1 (1984)(Multi subs 15)(FULL DVD) Vlinder TBS 4.31 GB 0 0 6 years 3 weeks
[i] Beverly Hills Cop 1984 1080p BRRip H264 AAC - IceBane (Kingdom Release) 2.91 GB 0 0 5 years 1 week

Top Movies ( auto generated report )

FILENAME SIZE SEEDS PEERS ADDED UPD
[i] Rings.2017.BRRip.XViD-ETRG 712.3 MB 5304 3488 3 days 2 days
[i] A Dog's Purpose (2017) [720p] [YTS AG] 734.31 MB 4012 2214 2 days 12 hours
[i] Get.Out.2017.720p.HC.HDRip.XviD.AC3-EVO[EtHD] 2.5 GB 3446 1856 2 days 1 day
[i] Gold (2016) [720p] [YTS AG] 881.47 MB 3391 1995 2 days 1 day
[i] Rings (2017) [720p] [YTS AG] 758.1 MB 3371 2294 2 days 1 day
[i] Gold (2016) [1080p] [YTS AG] 1.83 GB 3342 1727 2 days 1 day
[i] A Dog's Purpose (2017) [1080p] [YTS AG] 1.52 GB 3317 1615 2 days 12 hours
[i] Rings (2017) [1080p] [YTS AG] 1.56 GB 3072 1881 2 days 1 day
[i] Las inocentes (HDRip) 1.92 GB 1775 384 2 days 11 hours
[i] Get.Out.2017.1080p.HC.WEBRip.x264.AAC2.0-STUTTERSHIT 3.4 GB 2550 1230 2 days 11 hours