Why Him 2016 BDRip 1080p mkv | Business | Calvin Harris - This Is What You Came For (feat. Rihanna) {2016- Posted by Oz in Audio 8.77MiB 04-3021:45 1692 5
11
Beyonc Lemonade [320] 2016 Beyonce Lemonade [320] 2016 Posted by Capajebo in Audio
106.08MiB 04-2415:06 1549 36
68
131.64MiB 02-1408:32 1534 28
10.05MiB 02-1522:00 1452 2
441.39MiB 02-0920:57 1425 130
98.2MiB 11-2918:08 1373 10
7.98MiB 06-1717:52 1370 10
Sia - Cheap Thrills (feat. Sean Paul) {2016-Single}

Bit Torrent Scene a public file sharing platform Home Categories About

Warning! Use a VPN When Downloading Torrents!
Your IP Address is . Location is
Avoid LAWSUITS and FINES! Hide your IP ADDRESS with a VPN!
We strongly recommend using Trust.Zone VPN to anonymize your torrenting. It's FREE!
Get VPN Now for FREE!

APB.S01E07.720p.HDTV.x264-FLEET[PRiME]

DOWNLOAD TORRENT

Posted on March 21, 2017 in Series » Misc , verified torrent

Size: 1.18 GB , Seeds: 84 , Peers: 33 ( Updated March 22, 2017 - Refresh )

* Download via Magnet Link

Loading...

Scrape History ( seeds + peers )

Internal Files

APB.S01E07.720p.HDTV.x264-FLEET[PRiME]
APB.S01E07.720p.HDTV.x264-FLEET[PRiME].mkv   1.17 GB
Please Support!! Read More!!!.txt   232 Byte
Torrent Downloaded From 1337x.to.txt   69 Byte
Torrent Downloaded From peertorrent.com.txt   446 Byte

Hash Code

9cffb0098cda7c56053f9716094e12ade1e5ce39

Description


APB.S01E07.720p.HDTV.x264-FLEET[PRiME]

SCREENSHOT

Complete name : APB.S01E07.720p.HDTV.x264-FLEET[PRiME].mkv
Format : Matroska
Format version : Version 2
File size : 1.17 GiB
Duration : 42 min 52 s
Overall bit rate : 3 906 kb/s
Writing application : x264.exe
Writing library : mkv2rls x264-tv version built on 2016.10.12

Video
ID : 1
Format : AVC
Format/Info : Advanced Video Codec
Format profile : [email protected]/* */
Format settings, CABAC : Yes
Format settings, ReFrames : 5 frames
Codec ID : V_MPEG4/ISO/AVC
Duration : 42 min 52 s
Bit rate : 3 381 kb/s
Width : 1 280 pixels
Height : 720 pixels
Display aspect ratio : 16:9
Frame rate mode : Constant
Frame rate : 23.976 (24000/1001) FPS
Color space : YUV
Chroma subsampling : 4:2:0
Bit depth : 8 bits
Scan type : Progressive
Bits/(Pixel*Frame) : 0.153
Stream size : 1.01 GiB (87%)
Writing library : x264 core 148 r2762 90a61ec
Encoding settings : cabac=1 / ref=5 / deblock=1:0:0 / analyse=0x3:0x113 / me=umh / subme=9 / psy=1 / psy_rd=1.00:0.00 / mixed_ref=1 / me_range=16 / chroma_me=1 / trellis=2 / 8x8dct=1 / cqm=0 / deadzone=21,11 / fast_pskip=1 / chroma_qp_offset=-2 / threads=22 / lookahead_threads=1 / sliced_threads=0 / nr=0 / decimate=1 / interlaced=0 / bluray_compat=0 / constrained_intra=0 / bframes=3 / b_pyramid=2 / b_adapt=1 / b_bias=0 / direct=3 / weightb=1 / open_gop=0 / weightp=2 / keyint=250 / keyint_min=23 / scenecut=40 / intra_refresh=0 / rc_lookahead=50 / rc=crf / mbtree=1 / crf=18.0 / qcomp=0.60 / qpmin=0 / qpmax=69 / qpstep=4 / ip_ratio=1.40 / aq=1:1.00
Language : English
Default : Yes
Forced : No
Color range : Limited
Matrix coefficients : BT.709

Audio
ID : 2
Format : AC-3
Format/Info : Audio Coding 3
Mode extension : CM (complete main)
Format settings, Endianness : Big
Codec ID : A_AC3
Duration : 42 min 52 s
Bit rate mode : Constant
Bit rate : 448 kb/s
Channel(s) : 6 channels
Channel positions : Front: L C R, Side: L R, LFE
Sampling rate : 48.0 kHz
Frame rate : 31.250 FPS (1536 spf)
Compression mode : Lossy
Stream size : 137 MiB (11%)
Language : English
Default : Yes
Forced : No

Text
ID : 3
Format : UTF-8
Codec ID : S_TEXT/UTF8
Codec ID/Info : UTF-8 Plain Text
Title : English
Language : English
Default : No
Forced : No

SCREENSHOT

Click Image To View Full Size

SCREENSHOT
Click To View Screenshot
Click To View Screenshot
Click To View Screenshot

Torrent location

http://www.1337x.to/torrent/2122202/APB-S01E07-720p-HDTV-x264-FLEET-PRiME/

Trackers

Refresh Leechers : Updated March 22, 2017

1. http://explodie.org:6969/announce

2. http://tracker.tfile.me/announce

3. http://bigfoot1942.sektori.org:6969/announce

4. udp://eddie4.nl:6969/announce

5. udp://tracker4.piratux.com:6969/announce

6. udp://tracker.trackerfix.com:80/announce

7. udp://tracker.pomf.se:80/announce

8. udp://torrent.gresille.org:80/announce

9. udp://9.rarbg.me:2710/announce

10. udp://tracker.leechers-paradise.org:6969/announce

11. udp://glotorrents.pw:6969/announce

12. udp://tracker.opentrackr.org:1337/announce

13. udp://tracker.blackunicorn.xyz:6969/announce

14. udp://tracker.internetwarriors.net:1337/announce

15. udp://p4p.arenabg.ch:1337/announce

16. udp://tracker.coppersurfer.tk:6969/announce

17. udp://9.rarbg.to:2710/announce

18. udp://tracker.openbittorrent.com:80/announce

19. udp://glotorrents.pw:6969/announce

20. udp://eddie4.nl:6969/announce

21. udp://explodie.org:6969/announce

22. udp://9.rarbg.me:2710/announce

23. udp://9.rarbg.to:2710/announce

24. udp://9.rarbg.com:2710/announce

25. udp://p4p.arenabg.com:1337/announce

26. udp://p4p.arenabg.ch:1337/announce

27. udp://ipv4.tracker.harry.lu:80/announce

28. udp://tracker.zer0day.to:1337/announce

29. udp://tracker.opentrackr.org:1337/announce

30. udp://tracker.leechers-paradise.org:6969/announce

31. udp://tracker.coppersurfer.tk:6969/announce

32. udp://tracker.ilibr.org:80/announce

33. udp://tracker.ilibr.org:6969/announce

Comments

You must log in to add a comment.

Embed Code

Sharing Widget

Related torrents

FILENAME SIZE SEEDS PEERS ADDED UPD
[i] Shooter.S01E07.720p.HDTV.x264-AVS[eztv].mkv 785.65 MB 486 65 2 months 2 months
[i] Ransom.S01E07.720p.HDTV.x264-KILLERS[ettv] 1.04 GB 480 270 1 month 1 month
[i] The.Halcyon.S01E07.720p.HDTV.x264-ORGANiC[eztv] 579.65 MB 235 131 1 month 1 month
[i] Emerald.City.2017.S01E07.720p.HDTV.x264-FLEET[PRiME] 1.11 GB 228 203 1 month 1 month
[i] Taboo.S01E07.720p.HDTV.x264-ORGANiC.mkv 983.15 MB 188 180 1 month 1 month
[i] Ransom.S01E07.720p.HDTV.x264-KILLERS[eztv].mkv 1.04 GB 183 71 1 month 1 month
[i] Shooter.S01E07.720p.HDTV.x264-AVS[PRiME] 804 MB 175 67 2 months 2 months
[i] The.Exorcist.S01E07.720p.HDTV.X264-DIMENSION[ettv] 1002.6 MB 174 20 4 months 3 months
[i] Emerald.City.S01E07.720p.HDTV.x264-AVS[eztv] 1.21 GB 169 133 1 month 1 month
[i] 24.Legacy.S01E07.720p.HDTV.x264-AVS[PRiME] 1.13 GB 154 155 1 week 1 week

Top Series ( auto generated report )

FILENAME SIZE SEEDS PEERS ADDED UPD
[i] The.Flash.2014.S03E17.HDTV.x264-LOL[ettv] 272.5 MB 11580 1850 1 day 6 hours
[i] Supergirl.S02E16.HDTV.x264-LOL[ettv] 278.5 MB 7145 1311 2 days 1 day
[i] DCs.Legends.of.Tomorrow.S02E15.HDTV.x264-LOL[ettv] 294.5 MB 5975 941 1 day 4 hours
[i] Taken.2017.S01E04.HDTV.x264-KILLERS[ettv] 242.74 MB 4169 760 2 days 1 day
[i] Arrow.S05E17.HDTV.x264-LOL[ettv] 256.5 MB 3891 3770 5 hours 3 hours
[i] Arrow.S05E16.HDTV.x264-LOL[ettv] 250.5 MB 3837 545 1 week 1 day
[i] The.Walking.Dead.S07E14.720p.WEB-DL.H264-FUM[ettv] 1.48 GB 2714 410 2 days 1 day
[i] Legion.S01E06.WEB-DL.XviD-FUM[ettv] 428.5 MB 2482 201 6 days 18 hours
[i] Scorpion.S03E20.HDTV.x264-LOL[ettv] 294.5 MB 2405 382 2 days 1 day
[i] Quantico.S02E14.HDTV.x264-LOL[ettv] 246.5 MB 2322 376 2 days 1 day
advertising ( remove )