Pitch Perfect 2 DOWNLOAD ITA – 720p BluRay (2015) | Pongo Il Cane Milionario DOWNLOAD ITA – 720p Bluray (2014) | Posh DOWNLOAD ITA – 720p BluRay (2014)

A Dogs Purpose (2017) 1920 x 804 x264 Phun Psyz

DOWNLOAD TORRENT

Posted on April 21, 2017 in Movies » Adventure , verified torrent

Size: 1.42 GB , Seeds: 8 , Peers: 6 ( Updated April 22, 2017 - Refresh )

* Download via Magnet Link * To download files you need a Bittorrent Client ,

Scrape History ( seeds + peers )

Internal Files

A Dogs Purpose (2017) 1920 x 804 x264 Phun Psyz.mp4
A Dogs Purpose (2017) 1920 x 804 x264 Phun Psyz.mp4   1.42 GB

Hash Code

18dc0321c5f77c270cdb1f872ad2ff412bafd224

Description

x265 Size, x264 Compatibility, HD Quality



A friend with weed that seeds is a friend indeed



Source: A.Dogs.Purpose.2017.1080p.BluRay.x264.DTS-HDC (8.73GB)

http://www.imdb.com/title/tt1753383/

IMDB A Dog's Purpose (2017) Rating: 5.5



A dog looks to discover his purpose in life over the course of several lifetimes and owners.



SCREENSHOTSCREENSHOT

SCREENSHOTSCREENSHOT

SCREENSHOTSCREENSHOT

SCREENSHOTSCREENSHOT

SCREENSHOTSCREENSHOT



Format : MPEG-4

Format profile : Base Media / Version 2

Codec ID : mp42 (isom/iso2/avc1/mp41)

File size : 1.42 GiB

Duration : 1 h 40 min

Overall bit rate mode : Variable

Overall bit rate : 2 036 kb/s

Writing application : HandBrake 1.0.7 2017040900



Video

ID : 1

Format : AVC

Format/Info : Advanced Video Codec

Format profile : [email protected]/* */

Format settings, CABAC : Yes

Format settings, ReFrames : 8 frames

Codec ID : avc1

Codec ID/Info : Advanced Video Coding

Duration : 1 h 40 min

Bit rate : 1 870 kb/s

Width : 1 920 pixels

Height : 804 pixels

Display aspect ratio : 2.40:1

Frame rate mode : Variable

Frame rate : 23.976 (24000/1001) FPS

Minimum frame rate : 23.974 FPS

Maximum frame rate : 23.981 FPS

Color space : YUV

Chroma subsampling : 4:2:0

Bit depth : 8 bits

Scan type : Progressive

Bits/(Pixel*Frame) : 0.051

Stream size : 1.31 GiB (92%)

Writing library : x264 core 148 r2708 86b7198

Color range : Limited

Color primaries : BT.709

Transfer characteristics : BT.709

Matrix coefficients : BT.709

Menus : 3



Audio

ID : 2

Format : AAC

Format/Info : Advanced Audio Codec

Format profile : LC

Codec ID : 40

Duration : 1 h 40 min

Bit rate mode : Variable

Bit rate : 160 kb/s

Channel(s) : 2 channels

Channel positions : Front: L R

Sampling rate : 48.0 kHz

Frame rate : 46.875 FPS (1024 spf)

Compression mode : Lossy

Stream size : 115 MiB (8%)

Title : Stereo / Stereo

Language : English

Default : Yes

Alternate group : 1

Menus : 3



Menu

ID : 3

Codec ID : text

Duration : 1 h 40 min

Language : English

Menu For : 1,2

00:00:00.000 : 00:00:00.000

00:04:40.280 : 00:04:39.779

00:08:55.201 : 00:08:54.409

00:14:11.517 : 00:14:10.308

00:17:47.733 : 00:17:46.482

00:22:38.691 : 00:22:38.607

00:28:33.712 : 00:28:33.003

00:33:46.024 : 00:33:45.482

00:37:27.579 : 00:37:26.703

00:42:17.201 : 00:42:16.117

00:48:32.243 : 00:48:31.534

00:51:24.415 : 00:51:24.248

00:56:06.029 : 00:56:04.736

01:01:13.003 : 01:01:12.669

01:05:41.271 : 01:05:40.311

01:12:04.320 : 01:12:03.069

01:16:24.580 : 01:16:24.497

01:21:08.864 : 01:21:07.988

01:27:58.607 : 01:27:57.939

01:33:41.616 : 01:33:40.615

Torrent location

http://extra.to/torrent/5587804/A+Dogs+Purpose+%282017%29+1920+x+804+x264+Phun+Psyz.html

Trackers

Refresh Leechers : Updated April 22, 2017

1. UDP://TRACKER.COPPERSURFER.TK:6969/ANNOUNCE

2. UDP://TRACKER.OPENTRACKR.ORG:1337/ANNOUNCE

3. UDP://EDDIE4.NL:6969/ANNOUNCE

4. udp://tracker.zer0day.to:1337/announce

5. udp://tracker.leechers-paradise.org:6969/announce

6. udp://9.rarbg.me:2800/announce

7. udp://9.rarbg.to:2800/announce

8. udp://shadowshq.yi.org:6969/announce

9. udp://explodie.org:6969/announce

Comments

You must log in to add a comment.

Embed Code

Sharing Widget

Top Movies ( auto generated report )

FILENAME SIZE SEEDS PEERS ADDED UPD
[i] Rings.2017.BRRip.XViD-ETRG 712.3 MB 5304 3488 3 days 2 days
[i] A Dog's Purpose (2017) [720p] [YTS AG] 734.31 MB 4012 2214 2 days 12 hours
[i] Get.Out.2017.720p.HC.HDRip.XviD.AC3-EVO[EtHD] 2.5 GB 3446 1856 2 days 1 day
[i] Gold (2016) [720p] [YTS AG] 881.47 MB 3391 1995 2 days 1 day
[i] Rings (2017) [720p] [YTS AG] 758.1 MB 3371 2294 2 days 1 day
[i] Gold (2016) [1080p] [YTS AG] 1.83 GB 3342 1727 2 days 1 day
[i] A Dog's Purpose (2017) [1080p] [YTS AG] 1.52 GB 3317 1615 2 days 12 hours
[i] Rings (2017) [1080p] [YTS AG] 1.56 GB 3072 1881 2 days 1 day
[i] Las inocentes (HDRip) 1.92 GB 1775 384 2 days 11 hours
[i] Get.Out.2017.1080p.HC.WEBRip.x264.AAC2.0-STUTTERSHIT 3.4 GB 2550 1230 2 days 11 hours